img image001 image001 image001 image001 image001 image001 image001 image001 image001 image001 image001 image001 image001 image001 image001

Planets Sun Sun Sun
Статистика раздачи
Автор: Снежана | Размер: 1.14 ГБ | Добавлен: 05 авг 2013
Раздают: 0    Качают: 2
Скачать торрент
Скачать торрент
Описание торрента

СообщениеДобавлено: 05 авг 2013 

#77

Информация о фильме
Название: Петербургские зарисовки 11
Год выхода: 2012
Жанр: Релакс, Видовой
Режиссер: waPBX
В ролях: добрые жители Питера

Страна: Россия
Продолжительность: 00:14:56
Перевод: оригинал

Файл
Кодек: H.264
Качество: 1080p
Видео: битрейт : Переменный 10,4 Мбит/сек, 1920x1080, 25,0 кадр/сек.
Звук: Формат : MP3 , битрейт : Постоянный, 320 Кбит/сек, 2 канала.

О фильме:
Любительское видео. Санкт - Петербург и пригороды


Mediainfo
Общее
Полное имя : Петербургские зарисовки 11.mkv
Формат : Matroska
Версия формата : Version 2
Размер файла : 1,14 Гбайт
Продолжительность : 14 м.
Общий поток : 10,9 Мбит/сек
Программа кодирования : Lavf51.12.1
Библиотека кодирования : Lavf51.12.1

Видео
Идентификатор : 1
Формат : AVC
Формат/Информация : Advanced Video Codec
Профиль формата : Baseline@L4.0
Параметр CABAC формата : Нет
Параметр ReFrames формата : 1 кадр
Параметр GOP формата : M=1, N=12
Идентификатор кодека : V_MPEG4/ISO/AVC
Продолжительность : 14 м.
Вид битрейта : Переменный
Битрейт : 10,4 Мбит/сек
Максимальный битрейт : 15,0 Мбит/сек
Ширина : 1920 пикселей
Высота : 1080 пикселей
Соотношение сторон : 16:9
Частота кадров : 25,000 кадров/сек
Частота кадров в оригинале : 24,000 кадра/сек
Цветовое пространство : YUV
Субдискретизация насыщенности : 4:2:0
Битовая глубина : 8 бит
Тип развёртки : Прогрессивная
Бит/(Пиксели*Кадры) : 0.200
Размер потока : 1,08 Гбайт (95%)
Аудио
Идентификатор : 2
Формат : MPEG Audio
Версия формата : Version 1
Профиль формата : Layer 3
Режим : Joint stereo
Идентификатор кодека : A_MPEG/L3
Идентификатор кодека/Подсказка : MP3
Продолжительность : 14 м.
Вид битрейта : Постоянный
Битрейт : 320 Кбит/сек
Каналы : 2 канала
Частота : 44,1 КГц
Метод сжатия : С потерями
Размер потока : 34,2 Мбайт (3%)
Библиотека кодирования : LAME3.97



   Похожие торренты   Торрент   Размер 
В этой теме нет новых непрочитанных сообщений. Петербургские зарисовки [13] (2012) HD 1080p

0 | 4

855.81 МБ

В этой теме нет новых непрочитанных сообщений. Петербургские зарисовки [12] (2012) HD 1080p

0 | 5

2.3 ГБ

В этой теме нет новых непрочитанных сообщений. Петербургские зарисовки [14] (2012) HD 1080p

0 | 2

825.43 МБ

В этой теме нет новых непрочитанных сообщений. Петербургские зарисовки [10] (2011) HD 1080p

0 | 5

5.62 ГБ

В этой теме нет новых непрочитанных сообщений. Петербургские зарисовки [07] (2011) HD 1080p

0 | 2

1.33 ГБ

В этой теме нет новых непрочитанных сообщений. Петербургские зарисовки [06] (2011) HD 1080p

0 | 2

907.55 МБ

В этой теме нет новых непрочитанных сообщений. Петербургские зарисовки [08] (2011) HD 1080p

0 | 2

408.9 МБ




Вы не можете начинать темы
Вы не можете отвечать на сообщения
Вы не можете редактировать свои сообщения
Вы не можете удалять свои сообщения
Вы не можете добавлять вложения

Перейти:  
Для Мосгорсуда, Роскомнадзора и рекламодателей: mosgorsud-torrent[собачка]yandex.ru
 Вход
ppkBB3cker v.2 © 2008-2014 @ PPK
[ Time : 0.038s | 15 Queries | GZIP : Off ]

Торрент трекер RUTOR.IN, Не можете зайти на rutor.org? Какой новый адрес рутор? Какое зеркало рутор? Не работает rutor.org и зеркала? Тогда наш торрент специально для вас. Rutor.in неофициальное зеркало rutor. В случае если у Вас заблокирован rutor или вдруг Вы не можете на него зайти, то Вы без труда сможете скачать бесплатно и без рекламы последние новинки кино, игр, сериалов и прочего у нас, на Rutor.in. Не нужно использовать прокси, чтобы зайти на рутор, достаточно воспользоваться нашим ресурсом. Все новые фильмы, игры, сериалы, книги и музыка за 2013 и 2014 годы через торрент бесплатно. Скачивайте фильмы в хорошем качестве, игры для пк, xbox, playstation без регистрации. У нас вы найдете новые Зарубежные сериалы и Русские сериалы 2013, 2014, 2015 годов. Оставайтесь с нами, качайте любимые фильмы, игры, сериалы, книги и музыку.
cron