img image001 image001 image001 image001 image001 image001 image001 image001 image001 image001 image001 image001 image001 image001 image001

Planets Sun Sun Sun
Статистика раздачи
Автор: Снежана | Размер: 2.3 ГБ | Добавлен: 05 авг 2013
Раздают: 0    Качают: 5
Скачать торрент
Скачать торрент
Описание торрента

СообщениеДобавлено: 05 авг 2013 

#77

Информация о фильме

Год выхода: 2012
Жанр: Релакс, Видовой
Оператор: waPBX
В ролях: добрые жители Санкт - Петербурга

Страна: Россия
Продолжительность: 00:16:39
Перевод: оригинал
Файл
Контейнер: m2ts (MPEG2 Transport Stream)
Кодек: H.264/AVC(1920x1080)
Качество: 1080p
Видео: битрейт : Переменный 18,4 Мбит/сек , 1920x1080, 25,0 кадр/сек.
Звук: Формат : Audio Coding 3 , битрейт : Постоянный, 384 Кбит/сек , 2 канала.


О фильме:
Любительское видео. Санкт - Петербург, 9 мая - вечер, после парада, народ уже разогнали с Невского, как бы чё не вышло, как будто транспорту негде проехать кроме Невского и сразу моечные машины с удовольствием поливать толпу. Только на Дворцовой около ста тысяч, видно на видео, остальных загнали на узкие тротуары. Спокойно можно было дать погулять (народные гуляния), скажем с 12 дня до 12 ночи. Салют как всегда - пшик. В белое небо, как в копеечку - виден только дым. Не снимал.
Видео должно идти на бытовых медиаплейерах и на Тв со встроенным медиапроигрывателем.



Mediainfo
Общее
Идентификатор : 0 (0x0)
Полное имя : Петербургские зарисовки 12.m2ts
Формат : MPEG-TS
Размер файла : 2,30 Гбайт
Продолжительность : 16 м.
Общий поток : 19,8 Мбит/сек
Максимальный общий битрейт : 40,0 Мбит/сек

Видео
Идентификатор : 4113 (0x1011)
Идентификатор меню : 1 (0x1)
Формат : AVC
Формат/Информация : Advanced Video Codec
Профиль формата : High@L4.1
Параметр CABAC формата : Да
Параметр ReFrames формата : 2 кадра
Параметр GOP формата : M=3, N=15
Идентификатор кодека : 27
Продолжительность : 16 м.
Вид битрейта : Переменный
Битрейт : 18,4 Мбит/сек
Максимальный битрейт : 24,0 Мбит/сек
Ширина : 1920 пикселей
Высота : 1080 пикселей
Соотношение сторон : 16:9
Частота кадров : 25,000 кадров/сек
Цветовое пространство : YUV
Субдискретизация насыщенности : 4:2:0
Битовая глубина : 8 бит
Тип развёртки : Чересстрочная
Порядок развёртки : Верхнее поле первое
Бит/(Пиксели*Кадры) : 0.355
Размер потока : 2,14 Гбайт (93%)

Аудио
Идентификатор : 4352 (0x1100)
Идентификатор меню : 1 (0x1)
Формат : AC-3
Формат/Информация : Audio Coding 3
Расширение режима : CM (complete main)
Идентификатор кодека : 129
Продолжительность : 16 м.
Вид битрейта : Постоянный
Битрейт : 384 Кбит/сек
Каналы : 2 канала
Расположение каналов : Front: L R
Частота : 48,0 КГц
Битовая глубина : 16 бит
Метод сжатия : С потерями
Задержка видео : 49 мс.
Размер потока : 45,8 Мбайт (2%)



   Похожие торренты   Торрент   Размер 
В этой теме нет новых непрочитанных сообщений. Петербургские зарисовки [11] (2012) HD 1080p

0 | 2

1.14 ГБ

В этой теме нет новых непрочитанных сообщений. Петербургские зарисовки [14] (2012) HD 1080p

0 | 2

825.43 МБ

В этой теме нет новых непрочитанных сообщений. Петербургские зарисовки [13] (2012) HD 1080p

0 | 4

855.81 МБ

В этой теме нет новых непрочитанных сообщений. Петербургские зарисовки [03] (2011) HD 1080p

0 | 2

203.78 МБ

В этой теме нет новых непрочитанных сообщений. Петербургские зарисовки [07] (2011) HD 1080p

0 | 2

1.33 ГБ

В этой теме нет новых непрочитанных сообщений. Петербургские зарисовки [10] (2011) HD 1080p

0 | 5

5.62 ГБ

В этой теме нет новых непрочитанных сообщений. Петербургские зарисовки [06] (2011) HD 1080p

0 | 2

907.55 МБ




Вы не можете начинать темы
Вы не можете отвечать на сообщения
Вы не можете редактировать свои сообщения
Вы не можете удалять свои сообщения
Вы не можете добавлять вложения

Перейти:  
Для Мосгорсуда, Роскомнадзора и рекламодателей: mosgorsud-torrent[собачка]yandex.ru
 Вход
ppkBB3cker v.2 © 2008-2014 @ PPK
[ Time : 1.391s | 14 Queries | GZIP : Off ]

Торрент трекер RUTOR.IN, Не можете зайти на rutor.org? Какой новый адрес рутор? Какое зеркало рутор? Не работает rutor.org и зеркала? Тогда наш торрент специально для вас. Rutor.in неофициальное зеркало rutor. В случае если у Вас заблокирован rutor или вдруг Вы не можете на него зайти, то Вы без труда сможете скачать бесплатно и без рекламы последние новинки кино, игр, сериалов и прочего у нас, на Rutor.in. Не нужно использовать прокси, чтобы зайти на рутор, достаточно воспользоваться нашим ресурсом. Все новые фильмы, игры, сериалы, книги и музыка за 2013 и 2014 годы через торрент бесплатно. Скачивайте фильмы в хорошем качестве, игры для пк, xbox, playstation без регистрации. У нас вы найдете новые Зарубежные сериалы и Русские сериалы 2013, 2014, 2015 годов. Оставайтесь с нами, качайте любимые фильмы, игры, сериалы, книги и музыку.