img image001 image001 image001 image001 image001 image001 image001 image001 image001 image001 image001 image001 image001 image001 image001

Planets Sun Sun Sun
Статистика раздачи
Автор: Снежана | Размер: 408.9 МБ | Добавлен: 06 авг 2013
Раздают: 0    Качают: 2
Скачать торрент
Скачать торрент
Описание торрента

СообщениеДобавлено: 06 авг 2013 

#77

Название: Петербургские зарисовки 8
Год выхода: 2011
Жанр: Релакс, Видовой
Выпущено: waPBX - любительское видео, ч.8.
Продолжительность: 00:03:18

Файл
Контейнер: m2ts (MPEG2 Transport Stream)
Кодек: H.264/AVC(1920x1080)
Качество: 1080p
Видео: битрейт : Переменный 16,192 Мбит/сек , 1920x1080, 25,0 кадр/сек.
Звук: Формат : Audio Coding 3 , битрейт : Постоянный, 384 Кбит/сек , 2 канала.


О фильме:

Видео не несет никакой информации...кроме, хорошего настроения.
Песня: Евгения Смольянинова - Не обмани








Mediainfo:
Общее
Идентификатор : 0 (0x0)
Полное имя : Петербургские зарисовки 8 - HD.mpg
Формат : BDAV
Формат/Информация : Blu-ray Video
Размер файла : 409 Мбайт
Продолжительность : 3 м. 18 с.
Общий поток : 17,3 Мбит/сек
Максимальный общий битрейт : 23,0 Мбит/сек

Видео
Идентификатор : 4113 (0x1011)
Идентификатор меню : 1 (0x1)
Формат : AVC
Формат/Информация : Advanced Video Codec
Профиль формата : High@L4.0
Параметр CABAC формата : Да
Параметр ReFrames формата : 2 кадра
Параметр GOP формата : M=3, N=12
Идентификатор кодека : 27
Продолжительность : 3 м. 18 с.
Вид битрейта : Переменный
Битрейт : 16,2 Мбит/сек
Максимальный битрейт : 18,0 Мбит/сек
Ширина : 1920 пикселей
Высота : 1080 пикселей
Соотношение сторон : 16:9
Частота кадров : 25,000 кадров/сек
Стандарт вещания : PAL
Цветовое пространство : YUV
Субдискретизация насыщенности : 4:2:0
Битовая глубина : 8 бит
Тип развёртки : Чересстрочная
Порядок развёртки : Верхнее поле первое
Бит/(Пиксели*Кадры) : 0.313
Размер потока : 384 Мбайт (94%)
Основные цвета : BT.709-5, BT.1361, IEC 61966-2-4, SMPTE RP177
Характеристики трансфера : BT.709-5, BT.1361
Коэффициенты матрицы : BT.709-5, BT.1361, IEC 61966-2-4 709, SMPTE RP177

Аудио
Идентификатор : 4352 (0x1100)
Идентификатор меню : 1 (0x1)
Формат : AC-3
Формат/Информация : Audio Coding 3
Расширение режима : CM (complete main)
Идентификатор кодека : 129
Продолжительность : 3 м. 18 с.
Вид битрейта : Постоянный
Битрейт : 384 Кбит/сек
Каналы : 2 канала
Расположение каналов : Front: L R
Частота : 48,0 КГц
Битовая глубина : 16 бит
Метод сжатия : С потерями
Размер потока : 9,08 Мбайт (2%)



   Похожие торренты   Торрент   Размер 
В этой теме нет новых непрочитанных сообщений. Петербургские зарисовки [04] (2011) HD 1080p

0 | 2

877.92 МБ

В этой теме нет новых непрочитанных сообщений. Петербургские зарисовки [01-02] (2011) HD 1080p

0 | 5

2.82 ГБ

В этой теме нет новых непрочитанных сообщений. Петербургские зарисовки [03] (2011) HD 1080p

0 | 2

203.78 МБ

В этой теме нет новых непрочитанных сообщений. Петербургские зарисовки [05] (2011) HD 1080p

1 | 2

1.37 ГБ

В этой теме нет новых непрочитанных сообщений. Петербургские зарисовки [07] (2011) HD 1080p

0 | 2

1.33 ГБ

В этой теме нет новых непрочитанных сообщений. Петербургские зарисовки [06] (2011) HD 1080p

0 | 2

907.55 МБ

В этой теме нет новых непрочитанных сообщений. Петербургские зарисовки [10] (2011) HD 1080p

0 | 5

5.62 ГБ




Вы не можете начинать темы
Вы не можете отвечать на сообщения
Вы не можете редактировать свои сообщения
Вы не можете удалять свои сообщения
Вы не можете добавлять вложения

Перейти:  
Для Мосгорсуда, Роскомнадзора и рекламодателей: mosgorsud-torrent[собачка]yandex.ru
 Вход
ppkBB3cker v.2 © 2008-2014 @ PPK
[ Time : 1.107s | 14 Queries | GZIP : Off ]

Торрент трекер RUTOR.IN, Не можете зайти на rutor.org? Какой новый адрес рутор? Какое зеркало рутор? Не работает rutor.org и зеркала? Тогда наш торрент специально для вас. Rutor.in неофициальное зеркало rutor. В случае если у Вас заблокирован rutor или вдруг Вы не можете на него зайти, то Вы без труда сможете скачать бесплатно и без рекламы последние новинки кино, игр, сериалов и прочего у нас, на Rutor.in. Не нужно использовать прокси, чтобы зайти на рутор, достаточно воспользоваться нашим ресурсом. Все новые фильмы, игры, сериалы, книги и музыка за 2013 и 2014 годы через торрент бесплатно. Скачивайте фильмы в хорошем качестве, игры для пк, xbox, playstation без регистрации. У нас вы найдете новые Зарубежные сериалы и Русские сериалы 2013, 2014, 2015 годов. Оставайтесь с нами, качайте любимые фильмы, игры, сериалы, книги и музыку.