img image001 image001 image001 image001 image001 image001 image001 image001 image001 image001 image001 image001 image001 image001 image001

Planets Sun Sun Sun
Статистика раздачи
Автор: Снежана | Размер: 855.81 МБ | Добавлен: 05 авг 2013
Раздают: 0    Качают: 4
Скачать торрент
Скачать торрент
Описание торрента

СообщениеДобавлено: 05 авг 2013 

#77

Информация о фильме

Год выхода: 2012
Жанр: Релакс, Видовой
Оператор: waPBX
В ролях: добрые жители Санкт - Петербурга

Страна: Россия
Продолжительность: 00:08:43
Перевод: оригинал
Файл
Контейнер: MP4
Кодек: H.264/AVC(1920x1080)
Качество: 1080p
Видео: битрейт : Переменный 13,858 Мбит/сек , 1920x1080, 30,0 кадр/сек.
Звук: Формат : AAC , битрейт : Постоянный, 128 Кбит/сек , 2 канала, Частота : 32,0 КГц


О фильме:
В фильм вошло: бессонная ночь, салют, фонтаны - Петергоф и немного странной музыки




Mediainfo
Полное имя : Санкт - Петербургские зарисовки 13.mp4
Формат : MPEG-4
Профиль формата : Base Media
Идентификатор кодека : isom
Размер файла : 856 Мбайт
Продолжительность : 8 м. 43 с.
Общий поток : 13,7 Мбит/сек
Дата кодирования : UTC 2012-05-20 07:23:18
Дата пометки : UTC 2012-05-20 07:23:18

Видео
Идентификатор : 1
Формат : AVC
Формат/Информация : Advanced Video Codec
Профиль формата : Main@L4.0
Параметр CABAC формата : Да
Параметр ReFrames формата : 2 кадра
Параметр GOP формата : M=3, N=15
Идентификатор кодека : avc1
Идентификатор кодека/Информация : Advanced Video Coding
Продолжительность : 8 м. 43 с.
Вид битрейта : Переменный
Битрейт : 13,6 Мбит/сек
Максимальный битрейт : 15,0 Мбит/сек
Ширина : 1920 пикселей
Высота : 1080 пикселей
Соотношение сторон : 16:9
Режим частоты кадров : Постоянный
Частота кадров : 30,000 кадров/сек
Стандарт вещания : NTSC
Цветовое пространство : YUV
Субдискретизация насыщенности : 4:2:0
Битовая глубина : 8 бит
Тип развёртки : Прогрессивная
Бит/(Пиксели*Кадры) : 0.218
Размер потока : 848 Мбайт (99%)
Язык : English
Дата кодирования : UTC 2012-05-20 07:23:18
Дата пометки : UTC 2012-05-20 07:23:18
Основные цвета : BT.709-5, BT.1361, IEC 61966-2-4, SMPTE RP177
Характеристики трансфера : BT.709-5, BT.1361
Коэффициенты матрицы : BT.709-5, BT.1361, IEC 61966-2-4 709, SMPTE RP177

Аудио
Идентификатор : 2
Формат : AAC
Формат/Информация : Advanced Audio Codec
Профиль формата : LC
Идентификатор кодека : 40
Продолжительность : 8 м. 43 с.
Вид битрейта : Постоянный
Битрейт : 128 Кбит/сек
Каналы : 2 канала
Расположение каналов : Front: L R
Частота : 32,0 КГц
Метод сжатия : С потерями
Размер потока : 8,00 Мбайт (1%)
Язык : English
Дата кодирования : UTC 2012-05-20 07:23:18
Дата пометки : UTC 2012-05-20 07:23:18



   Похожие торренты   Торрент   Размер 
В этой теме нет новых непрочитанных сообщений. Петербургские зарисовки [11] (2012) HD 1080p

0 | 2

1.14 ГБ

В этой теме нет новых непрочитанных сообщений. Петербургские зарисовки [14] (2012) HD 1080p

0 | 2

825.43 МБ

В этой теме нет новых непрочитанных сообщений. Петербургские зарисовки [12] (2012) HD 1080p

0 | 5

2.3 ГБ

В этой теме нет новых непрочитанных сообщений. Петербургские зарисовки [03] (2011) HD 1080p

0 | 2

203.78 МБ

В этой теме нет новых непрочитанных сообщений. Петербургские зарисовки [06] (2011) HD 1080p

0 | 2

907.55 МБ

В этой теме нет новых непрочитанных сообщений. Петербургские зарисовки [01-02] (2011) HD 1080p

0 | 5

2.82 ГБ

В этой теме нет новых непрочитанных сообщений. Петербургские зарисовки [10] (2011) HD 1080p

0 | 5

5.62 ГБ




Вы не можете начинать темы
Вы не можете отвечать на сообщения
Вы не можете редактировать свои сообщения
Вы не можете удалять свои сообщения
Вы не можете добавлять вложения

Перейти:  
Для Мосгорсуда, Роскомнадзора и рекламодателей: mosgorsud-torrent[собачка]yandex.ru
 Вход
ppkBB3cker v.2 © 2008-2014 @ PPK
[ Time : 0.031s | 15 Queries | GZIP : Off ]

cron