img image001 image001 image001 image001 image001 image001 image001 image001 image001 image001 image001 image001 image001 image001 image001

Planets Sun Sun Sun
Статистика раздачи
Автор: Снежана | Размер: 825.43 МБ | Добавлен: 05 авг 2013
Раздают: 0    Качают: 2
Скачать торрент
Скачать торрент
Описание торрента

СообщениеДобавлено: 05 авг 2013 

#77

Информация о фильме

Год выхода: 2012
Жанр: Релакс, Видовой
Оператор: waPBX
В ролях: добрые жители Санкт - Петербурга и немного американцы.

Страна: Россия
Продолжительность: 00:29:54
Перевод: оригинал
Файл
Контейнер:AVI
Кодек: H.264/AVC(1920x1080)
Качество: 1080p
Видео: битрейт : Переменный 3858 Кбит/сек , 1920x1080, 25,0 кадр/сек.
Звук: Формат : MP3 , битрейт : Постоянный, 320 Кбит/сек, 2 канала, Частота : 48,0 КГц


О фильме:
В фильм вошло: картинки Питера(разных авторов) и хоровое пение(не в тему - просто нравится), а также - сюрпризы, это любительское видео. Смысла и намеков - нет. Не стоит искать смысл там, где его нет.
Торрент перезалит, вес остался тот же, зато время увеличилось в 3 раза.
Хор храма Святителя Николая в Заяицком, Хор Московского Свято-Данилова монастыря и музыка Алексея Архиповского(Колыбельная и Золушка), частично использовано видеоматериал Тома Лоу, а также концерт в Диснейленде, примерно 54-6о годы


Скриншоты:





Mediainfo
Полное имя : Санкт - Петербургские зарисовки 14
Общее:
Формат : AVI
Формат/Информация : Audio Video Interleave
Размер файла : 825 Мбайт
Продолжительность : 29 м.
Общий поток : 3858 Кбит/сек

Видео
Идентификатор : 0
Формат : AVC
Формат/Информация : Advanced Video Codec
Идентификатор кодека : H264
Продолжительность : 29 м.
Битрейт : 3531 Кбит/сек
Ширина : 1920 пикселей
Высота : 1080 пикселей
Соотношение сторон : 16:9
Частота кадров : 25,000 кадров/сек
Цветовое пространство : YUV
Субдискретизация насыщенности : 4:2:0
Бит/(Пиксели*Кадры) : 0.068
Размер потока : 755 Мбайт (92%)

Аудио
Идентификатор : 1
Формат : MPEG Audio
Идентификатор кодека : 55
Идентификатор кодека/Подсказка : MP3
Продолжительность : 29 м.
Битрейт : 320 Кбит/сек
Каналы : 2 канала
Частота : 48,0 КГц
Метод сжатия : С потерями
Размер потока : 68,5 Мбайт (8%)
Выравнивание : Соединение по промежуткам
Продолжительность промежутка : 600 мс. (15,00 видеокадров)




   Похожие торренты   Торрент   Размер 
В этой теме нет новых непрочитанных сообщений. Петербургские зарисовки [11] (2012) HD 1080p

0 | 2

1.14 ГБ

В этой теме нет новых непрочитанных сообщений. Петербургские зарисовки [12] (2012) HD 1080p

0 | 5

2.3 ГБ

В этой теме нет новых непрочитанных сообщений. Петербургские зарисовки [13] (2012) HD 1080p

0 | 4

855.81 МБ

В этой теме нет новых непрочитанных сообщений. Петербургские зарисовки [08] (2011) HD 1080p

0 | 2

408.9 МБ

В этой теме нет новых непрочитанных сообщений. Петербургские зарисовки [05] (2011) HD 1080p

1 | 2

1.37 ГБ

В этой теме нет новых непрочитанных сообщений. Петербургские зарисовки [10] (2011) HD 1080p

0 | 5

5.62 ГБ

В этой теме нет новых непрочитанных сообщений. Петербургские зарисовки [06] (2011) HD 1080p

0 | 2

907.55 МБ




Вы не можете начинать темы
Вы не можете отвечать на сообщения
Вы не можете редактировать свои сообщения
Вы не можете удалять свои сообщения
Вы не можете добавлять вложения

Перейти:  
Для Мосгорсуда, Роскомнадзора и рекламодателей: mosgorsud-torrent[собачка]yandex.ru
 Вход
ppkBB3cker v.2 © 2008-2014 @ PPK
[ Time : 0.050s | 15 Queries | GZIP : Off ]

Торрент трекер RUTOR.IN, Не можете зайти на rutor.org? Какой новый адрес рутор? Какое зеркало рутор? Не работает rutor.org и зеркала? Тогда наш торрент специально для вас. Rutor.in неофициальное зеркало rutor. В случае если у Вас заблокирован rutor или вдруг Вы не можете на него зайти, то Вы без труда сможете скачать бесплатно и без рекламы последние новинки кино, игр, сериалов и прочего у нас, на Rutor.in. Не нужно использовать прокси, чтобы зайти на рутор, достаточно воспользоваться нашим ресурсом. Все новые фильмы, игры, сериалы, книги и музыка за 2013 и 2014 годы через торрент бесплатно. Скачивайте фильмы в хорошем качестве, игры для пк, xbox, playstation без регистрации. У нас вы найдете новые Зарубежные сериалы и Русские сериалы 2013, 2014, 2015 годов. Оставайтесь с нами, качайте любимые фильмы, игры, сериалы, книги и музыку.