img image001 image001 image001 image001 image001 image001 image001 image001 image001 image001 image001 image001 image001 image001 image001

Planets Sun Sun Sun
Статистика раздачи
Автор: Снежана | Размер: 8.25 ГБ | Добавлен: 05 авг 2013
Раздают: 9    Качают: 6
Скачать торрент
Скачать торрент
Описание торрента

СообщениеДобавлено: 05 авг 2013 

Информация о фильме
Название: Романтические закаты
Оригинальное название: Romantic Sunsets
Год выхода: 2010
Жанр:
Документальный (видовой фильм)




О фильме:
Названия мест закатов в этом издании сами по себе звучат уже как небольшой отпуск - Сан-Антонио де Портмани, Кала-Бениррас (оба на Ибице), Кармел-бай-зе-Си (в Калифорнии). Самые красивые и романтические пляжи приглашают Вас получить удовольствие, став свидетелем уникального события - захода солнца, и его исчезновения в море. Зрелище полное могущества, элегантности и изящества. Наслаждайтесь этим видео по желанию выбирая натуральный звук атмосферы побережья или мягкую музыку грёз на закате в объёмном звучании.


Страна: Германия
Студия: Deutsche Austrophon
Продолжительность: 01:18:37
Перевод: Не требуется (нет диалогов и комментариев)




Файл
Формат: MKV
Кодек: MPEG4/ISO/AVC H.264 (High@L4.0)
Качество: BDRip 1080p
Видео: 1920 x 1080 (1.778) at 25.000 fps/AVC at 14,0 Мбит/сек
Аудио 1: AC-3 at 512 Кбит/сек/6 каналов, 48,0 КГц музыка
Аудио 2: AC-3 at 512 Кбит/сек/6 каналов, 48,0 КГц шум прибоя
Средиземное море: Испания, Ибица, Сан-Антонио
Балтийское море: Германия, Фишланд-дарсс
Средиземное море: Испания, Ибица, Кала Бениррас
Тихий океан: США, Калифорния, Кармел


Видео
Идентификатор : 1
Формат : AVC
Формат/Информация : Advanced Video Codec
Профиль формата : High@L4.1
Параметр CABAC формата : Да
Параметр ReFrames формата : 4 кадра
Идентификатор кодека : V_MPEG4/ISO/AVC
Продолжительность : 1 ч. 18 м.
Битрейт : 14,0 Мбит/сек
Ширина : 1920 пикселей
Высота : 1080 пикселей
Соотношение сторон : 16:9
Режим частоты кадров : Постоянный
Частота кадров : 25,000 кадров/сек
Цветовое пространство : YUV
Субдискретизация насыщенности : 4:2:0
Битовая глубина : 8 бит
Тип развёртки : Прогрессивная
Бит/(Пиксели*Кадры) : 0.270
Размер потока : 7,53 Гбайт (91%)
Заголовок : Romantic Sunsets in HD (NNM-Club.Ru)
Библиотека кодирования : x264 core 124 r2197 69a0443
Настройки программы : cabac=1 / ref=4 / deblock=1:-3:-3 / analyse=0x3:0x133 / me=tesa / subme=11 / psy=1 / psy_rd=1.00:0.01 / mixed_ref=1 / me_range=32 / chroma_me=1 / trellis=2 / 8x8dct=1 / cqm=0 / deadzone=21,11 / fast_pskip=0 / chroma_qp_offset=-3 / threads=6 / sliced_threads=0 / nr=0 / decimate=1 / interlaced=0 / bluray_compat=0 / constrained_intra=0 / bframes=4 / b_pyramid=2 / b_adapt=2 / b_bias=0 / direct=3 / weightb=1 / open_gop=0 / weightp=2 / keyint=250 / keyint_min=25 / scenecut=40 / intra_refresh=0 / rc_lookahead=60 / rc=2pass / mbtree=1 / bitrate=14000 / ratetol=1.0 / qcomp=0.60 / qpmin=0 / qpmax=69 / qpstep=4 / cplxblur=20.0 / qblur=0.5 / ip_ratio=1.40 / aq=1:1.00
Язык : English
Default : Нет
Forced : Нет
Аудио #1
Идентификатор : 2
Формат : AC-3
Формат/Информация : Audio Coding 3
Расширение режима : CM (complete main)
Параметр Endianness формата : Big
Идентификатор кодека : A_AC3
Продолжительность : 1 ч. 18 м.
Вид битрейта : Постоянный
Битрейт : 512 Кбит/сек
Каналы : 6 каналов
Расположение каналов : Front: L C R, Side: L R, LFE
Частота : 48,0 КГц
Битовая глубина : 16 бит
Метод сжатия : С потерями
Размер потока : 288 Мбайт (3%)
Язык : English
Default : Нет
Forced : Нет
Аудио #2
Идентификатор : 3
Формат : AC-3
Формат/Информация : Audio Coding 3
Расширение режима : CM (complete main)
Параметр Endianness формата : Big
Идентификатор кодека : A_AC3
Продолжительность : 1 ч. 18 м.
Вид битрейта : Постоянный
Битрейт : 512 Кбит/сек
Каналы : 6 каналов
Расположение каналов : Front: L C R, Side: L R, LFE
Частота : 48,0 КГц
Битовая глубина : 16 бит
Метод сжатия : С потерями
Размер потока : 288 Мбайт (3%)
Язык : English
Default : Нет
Forced : Нет



   Похожие торренты   Торрент   Размер 
В этой теме нет новых непрочитанных сообщений. Романтические закаты / Romantic sunsets (2010) BDRip-AVC от ExKinoRay

4 | 4

2.14 ГБ

В этой теме нет новых непрочитанных сообщений. Живые Пейзажи: Самые красивые Рассветы и Закаты / Living Landscapes: World's Most Beautiful Sunrises And Sunsets (2009) BDRip от HELLYWOOD

15 | 6

1.09 ГБ

В этой теме нет новых непрочитанных сообщений. Романтические города: Карнавал в Венеции / Romantic City: Carnival in Venice (2010) BDRip 720p от ExKinoRay

51 | 2

2.16 ГБ

В этой теме нет новых непрочитанных сообщений. Романтические города: Париж / Romantic City: Paris (2010) HDRip

5 | 2

701.21 МБ

В этой теме нет новых непрочитанных сообщений. Романтические убийцы / Romantic Assassin / Nangman jagaek (2003) DVDRip | L1

0 | 2

1.47 ГБ

В этой теме нет новых непрочитанных сообщений. Наш Новый год: Романтические 60-е, Душевные 70-е, Золотые 80-е, Лихие 90-е (2010) SATRip

38 | 6

4.31 ГБ

В этой теме нет новых непрочитанных сообщений. Закаты Ибицы / Ibiza Sunset (2009) DVDRip от Generalfilm

0 | 1

698.38 МБ




Вы не можете начинать темы
Вы не можете отвечать на сообщения
Вы не можете редактировать свои сообщения
Вы не можете удалять свои сообщения
Вы не можете добавлять вложения

Перейти:  
Для Мосгорсуда, Роскомнадзора и рекламодателей: mosgorsud-torrent[собачка]yandex.ru
 Вход
ppkBB3cker v.2 © 2008-2014 @ PPK
[ Time : 0.023s | 13 Queries | GZIP : Off ]
CGP output time : 0.041s | 5 Queries | GZIP : Off

Торрент трекер RUTOR.IN, Не можете зайти на rutor.org? Какой новый адрес рутор? Какое зеркало рутор? Не работает rutor.org и зеркала? Тогда наш торрент специально для вас. Rutor.in неофициальное зеркало rutor. В случае если у Вас заблокирован rutor или вдруг Вы не можете на него зайти, то Вы без труда сможете скачать бесплатно и без рекламы последние новинки кино, игр, сериалов и прочего у нас, на Rutor.in. Не нужно использовать прокси, чтобы зайти на рутор, достаточно воспользоваться нашим ресурсом. Все новые фильмы, игры, сериалы, книги и музыка за 2013 и 2014 годы через торрент бесплатно. Скачивайте фильмы в хорошем качестве, игры для пк, xbox, playstation без регистрации. У нас вы найдете новые Зарубежные сериалы и Русские сериалы 2013, 2014, 2015 годов. Оставайтесь с нами, качайте любимые фильмы, игры, сериалы, книги и музыку.