img image001 image001 image001 image001 image001 image001 image001 image001 image001 image001 image001 image001 image001 image001 image001

Planets Sun Sun Sun
Статистика раздачи
Автор: Снежана | Размер: 1.09 ГБ | Добавлен: 06 авг 2013
Раздают: 10    Качают: 2
Скачать торрент
Скачать торрент
Описание торрента

СообщениеДобавлено: 06 авг 2013 

#77

Год выпуска: 2012
Страна: Россия
Жанр: Просвещение
Продолжительность: 3:13:08

Качество: CAMRip
Формат: AVI
Видеокодек: XVID
Аудиокодек: MP3
Видео 1: 720x400, 504 Kbps, 25 fps
Видео 2: 640x360, 849 Kbps, 25 fps
Аудио: 96 Kbps, 48.0 Khz, 2 ch

Описание: Встреча Ведагора Алексея Васильевича Трехлебова с читателями в Санкт-Петербурге 16 декабря 2012 года, на тему: ''Веда Большого Перехода 2012''.

"А.В.Трехлебов. Встреча с читателями в Санкт-Петербурге 16.12.2012 - 1 часть"

General
Complete name : D:НАСЛЕДИЕ ПРЕДКОВВЕДАМАН ВЕДАГОРЪ А.В.ТРЕХЛЕБОВВидео2012А.В.Трехлебов. Встреча в Санкт-Петербурге 16.12. 2012А.В.Трехлебов. Встреча с читателями в Санкт-Петербурге 16.12.2012 - 1 часть.avi
Format : AVI
Format/Info : Audio Video Interleave
File size : 360 MiB
Duration : 1h 22mn
Overall bit rate : 610 Kbps

Video
ID : 0
Format : MPEG-4 Visual
Format profile : Advanced Simple@L5
Format settings, BVOP : No
Format settings, QPel : No
Format settings, GMC : No warppoints
Format settings, Matrix : Default (H.263)
Codec ID : XVID
Codec ID/Hint : XviD
Duration : 1h 22mn
Bit rate : 504 Kbps
Width : 720 pixels
Height : 400 pixels
Display aspect ratio : 16:9
Frame rate : 25.000 fps
Color space : YUV
Chroma subsampling : 4:2:0
Bit depth : 8 bits
Scan type : Progressive
Compression mode : Lossy
Bits/(Pixel*Frame) : 0.070
Stream size : 298 MiB (83%)
Writing library : XviD 62

Audio
ID : 1
Format : MPEG Audio
Format version : Version 1
Format profile : Layer 3
Codec ID : 55
Codec ID/Hint : MP3
Duration : 1h 22mn
Bit rate mode : Constant
Bit rate : 96.0 Kbps
Channel(s) : 2 channels
Sampling rate : 48.0 KHz
Compression mode : Lossy
Stream size : 56.7 MiB (16%)
Alignment : Split accross interleaves
Interleave, duration : 41 ms (1.02 video frame)
Writing library : LAMELAME_MAJOR_VERSI



"А.В.Трехлебов. Встреча с читателями в Санкт-Петербурге 16.12.2012 - 2 часть"

General
Complete name : D:НАСЛЕДИЕ ПРЕДКОВВЕДАМАН ВЕДАГОРЪ А.В.ТРЕХЛЕБОВВидео2012А.В.Трехлебов. Встреча в Санкт-Петербурге 16.12. 2012А.В.Трехлебов. Встреча с читателями в Санкт-Петербурге 16.12.2012 - 2 часть.avi
Format : AVI
Format/Info : Audio Video Interleave
File size : 755 MiB
Duration : 1h 50mn
Overall bit rate : 955 Kbps

Video
ID : 0
Format : MPEG-4 Visual
Format profile : Advanced Simple@L5
Format settings, BVOP : No
Format settings, QPel : No
Format settings, GMC : No warppoints
Format settings, Matrix : Default (H.263)
Codec ID : XVID
Codec ID/Hint : XviD
Duration : 1h 50mn
Bit rate : 849 Kbps
Width : 640 pixels
Height : 360 pixels
Display aspect ratio : 16:9
Frame rate : 25.000 fps
Color space : YUV
Chroma subsampling : 4:2:0
Bit depth : 8 bits
Scan type : Progressive
Compression mode : Lossy
Bits/(Pixel*Frame) : 0.147
Stream size : 671 MiB (89%)
Writing library : XviD 62

Audio
ID : 1
Format : MPEG Audio
Format version : Version 1
Format profile : Layer 3
Codec ID : 55
Codec ID/Hint : MP3
Duration : 1h 50mn
Bit rate mode : Constant
Bit rate : 96.0 Kbps
Channel(s) : 2 channels
Sampling rate : 48.0 KHz
Compression mode : Lossy
Stream size : 75.9 MiB (10%)
Alignment : Split accross interleaves
Interleave, duration : 41 ms (1.02 video frame)
Writing library : LAMELAME_MAJOR_VERSI






   Похожие торренты   Торрент   Размер 
В этой теме нет новых непрочитанных сообщений. Трехлебов А.В. - Ответы на вопросы [19.12] (2012) CAMRip

0 | 3

2 ГБ

В этой теме нет новых непрочитанных сообщений. Трехлебов А.В. - Встреча с читателями [20.12] (2012) CAMRip

2 | 2

2.46 ГБ

В этой теме нет новых непрочитанных сообщений. Трехлебов А.В. - Ответы на вопросы [февраль] (2012) CAMRip

0 | 2

557.68 МБ

В этой теме нет новых непрочитанных сообщений. Трехлебов А.В. - Встреча в Перми. Ответы на вопросы [22-25.02] (2012) CAMRip

0 | 3

2.31 ГБ

В этой теме нет новых непрочитанных сообщений. Трехлебов А.В. - Рубеж Новой Эры. Декабрь 2012 (2012) CAMRip

3 | 6

1.04 ГБ

В этой теме нет новых непрочитанных сообщений. Трехлебов А.В. - Монологи (2001) CAMRip

0 | 91

114.3 МБ

В этой теме нет новых непрочитанных сообщений. Трехлебов А.В. - Коллекция видео (2009) CAMRip

0 | 8

8.94 ГБ




Вы не можете начинать темы
Вы не можете отвечать на сообщения
Вы не можете редактировать свои сообщения
Вы не можете удалять свои сообщения
Вы не можете добавлять вложения

Перейти:  
Для Мосгорсуда, Роскомнадзора и рекламодателей: mosgorsud-torrent[собачка]yandex.ru
 Вход
ppkBB3cker v.2 © 2008-2014 @ PPK
[ Time : 0.060s | 14 Queries | GZIP : Off ]

Торрент трекер RUTOR.IN, Не можете зайти на rutor.org? Какой новый адрес рутор? Какое зеркало рутор? Не работает rutor.org и зеркала? Тогда наш торрент специально для вас. Rutor.in неофициальное зеркало rutor. В случае если у Вас заблокирован rutor или вдруг Вы не можете на него зайти, то Вы без труда сможете скачать бесплатно и без рекламы последние новинки кино, игр, сериалов и прочего у нас, на Rutor.in. Не нужно использовать прокси, чтобы зайти на рутор, достаточно воспользоваться нашим ресурсом. Все новые фильмы, игры, сериалы, книги и музыка за 2013 и 2014 годы через торрент бесплатно. Скачивайте фильмы в хорошем качестве, игры для пк, xbox, playstation без регистрации. У нас вы найдете новые Зарубежные сериалы и Русские сериалы 2013, 2014, 2015 годов. Оставайтесь с нами, качайте любимые фильмы, игры, сериалы, книги и музыку.