img image001 image001 image001 image001 image001 image001 image001 image001 image001 image001 image001 image001 image001 image001 image001

Planets Sun Sun Sun
Статистика раздачи
Автор: Снежана | Размер: 485.01 МБ | Добавлен: 05 авг 2013
Раздают: 163    Качают: 64
Скачать торрент
Скачать торрент
Описание торрента

СообщениеДобавлено: 05 авг 2013 

#77

Информация о фильме
Название: Релакс видео - 2
Год выхода: 2013
Жанр: Любительское видео
Режиссер: Разные авторы
В ролях: Природа - мать наша.

О фильме:
Фильм сделан по технологии Time-lapse. Добавлена музыка для релакса, 100% гарантия крепкого сна и расслабления... Красивые сьемки ландшафтов, ночных городов, облаков в движении, ночного неба, моря, гор... Любительское видео!
Time-lapse это интервальная съёмка с частотой кадров гораздо меньше обычного, порядка одного кадра в десять минут. Еще её называют цейтраферной киносъёмкой.
Технология Time-lapse, подразумевающая создание видеоматериала из кадров, сделанных через определенный интервал времени, особенно зрелищно демонстрируется роликами, в процессе съемки которых производилось смещение фотокамеры. Изменение точки съемки и ускоренное время протекания снимаемых процессов обеспечивают высокую динамичность сцены и производят на зрителя больший эффект.
Как же делаются такие видеоролики?
Помимо обычных правил создания Time-lapse, необходимо учесть следующее. При создании ролика автор после каждого кадра перемещал фотокамеру на некоторый постоянный интервал вдоль выбранной линии. Нацеливание производилось по заранее определённой точке на снимаемом объекте. При этом важно следить за тем, чтобы высота фотокамеры оставалась постоянной, а горизонт не был завален.

Страна: Новая Зеландия, Тайвань, Сингапур, США и др.
Продолжительность: 00:32:49
Перевод: не нужен

Файл
Кодек: MPEG-4
Качество: WEB-DL 720p
Видео: AVC, 1280x720, 25 fps, ~2060 kbps
Аудио: AAC, , 2 ch., 250 kbps, 48 kHz



Общее:
Формат : MPEG-4
Профиль формата : Base Media
Идентификатор кодека : isom
Размер файла : 485 Мбайт
Продолжительность : 32 м.
Режим общего битрейта : Переменный
Общий поток : 2066 Кбит/сек
Дата кодирования : UTC 2013-03-01 22:48:08
Дата пометки : UTC 2013-03-01 22:48:08

Видео
Идентификатор : 1
Формат : AVC
Формат/Информация : Advanced Video Codec
Профиль формата : High@L3.1
Параметр CABAC формата : Да
Параметр ReFrames формата : 2 кадра
Параметр GOP формата : M=3, N=12
Идентификатор кодека : avc1
Идентификатор кодека/Информация : Advanced Video Coding
Продолжительность : 32 м.
Вид битрейта : Переменный
Битрейт : 1806 Кбит/сек
Максимальный битрейт : 2000 Кбит/сек
Ширина : 1280 пикселей
Высота : 720 пикселей
Соотношение сторон : 16:9
Режим частоты кадров : Постоянный
Частота кадров : 25,000 кадров/сек
Стандарт вещания : PAL
Цветовое пространство : YUV
Субдискретизация насыщенности : 4:2:0
Битовая глубина : 8 бит
Тип развёртки : Прогрессивная
Бит/(Пиксели*Кадры) : 0.078
Размер потока : 424 Мбайт (87%)
Язык : English
Дата кодирования : UTC 2013-03-01 22:48:08
Дата пометки : UTC 2013-03-01 22:48:08
Основные цвета : BT.709
Характеристики трансфера : BT.709
Коэффициенты матрицы : BT.709

Аудио
Идентификатор : 2
Формат : AAC
Формат/Информация : Advanced Audio Codec
Профиль формата : LC
Идентификатор кодека : 40
Продолжительность : 32 м.
Вид битрейта : Постоянный
Битрейт : 256 Кбит/сек
Каналы : 2 канала
Расположение каналов : Front: L R
Частота : 48,0 КГц
Метод сжатия : С потерями
Размер потока : 60,2 Мбайт (12%)
Язык : English
Дата кодирования : UTC 2013-03-01 22:48:08
Дата пометки : UTC 2013-03-01 22:48:08



   Похожие торренты   Торрент   Размер 
В этой теме нет новых непрочитанных сообщений. Релакс видео 3 (2013) WEB-DL 720 от waPBX

75 | 74

2.84 ГБ

В этой теме нет новых непрочитанных сообщений. Клипы - Релакс (2010-2012) HD 720p

823 | 101

199.19 МБ

В этой теме нет новых непрочитанных сообщений. Джими Хендрикс / Jimi Hendrix: Hear My Train a Comin' (2013) HDTVRip 720p | Эй Би Видео

57 | 4

2.78 ГБ

В этой теме нет новых непрочитанных сообщений. VA - New Age Style - Релакс на диване (2011) MP3

48 | 10

972.61 МБ

В этой теме нет новых непрочитанных сообщений. Звуки природы - Живой лес - Релакс (2006) MP3

393 | 13

672.44 МБ

В этой теме нет новых непрочитанных сообщений. Лесные звуки природы и классика - Релакс (2006) MP3

110 | 64

507.74 МБ

В этой теме нет новых непрочитанных сообщений. Звуки природы - Здоровый сон у моря - Релакс (2007) MP3

243 | 11

166.1 МБ




Вы не можете начинать темы
Вы не можете отвечать на сообщения
Вы не можете редактировать свои сообщения
Вы не можете удалять свои сообщения
Вы не можете добавлять вложения

Перейти:  
Для Мосгорсуда, Роскомнадзора и рекламодателей: mosgorsud-torrent[собачка]yandex.ru
 Вход
ppkBB3cker v.2 © 2008-2014 @ PPK
[ Time : 0.035s | 15 Queries | GZIP : Off ]

Торрент трекер RUTOR.IN, Не можете зайти на rutor.org? Какой новый адрес рутор? Какое зеркало рутор? Не работает rutor.org и зеркала? Тогда наш торрент специально для вас. Rutor.in неофициальное зеркало rutor. В случае если у Вас заблокирован rutor или вдруг Вы не можете на него зайти, то Вы без труда сможете скачать бесплатно и без рекламы последние новинки кино, игр, сериалов и прочего у нас, на Rutor.in. Не нужно использовать прокси, чтобы зайти на рутор, достаточно воспользоваться нашим ресурсом. Все новые фильмы, игры, сериалы, книги и музыка за 2013 и 2014 годы через торрент бесплатно. Скачивайте фильмы в хорошем качестве, игры для пк, xbox, playstation без регистрации. У нас вы найдете новые Зарубежные сериалы и Русские сериалы 2013, 2014, 2015 годов. Оставайтесь с нами, качайте любимые фильмы, игры, сериалы, книги и музыку.
cron