img image001 image001 image001 image001 image001 image001 image001 image001 image001 image001 image001 image001 image001 image001 image001

Planets Sun Sun Sun
Статистика раздачи
Автор: Снежана | Размер: 2.84 ГБ | Добавлен: 05 авг 2013
Раздают: 75    Качают: 74
Скачать торрент
Скачать торрент
Описание торрента

СообщениеДобавлено: 05 авг 2013 

#77


Информация о фильме
Название: Релакс видео 3
Год выхода: 2013
Жанр: Любительское видео
Режиссер: Разные авторы
В ролях: Природа - мать наша.

О фильме:
Фильм сделан по технологии Time-lapse. Добавлена музыка для релакса: Phaeleh - Should Be True, Sky And Sand - Sunset (Comfort Version), Y-East - Feel The Sun, M83 - Echoes of Mine, Kostas V - Save Me, Sabretooth - Vibraphone (Original) (Radio Edit), Blue Desert - Schwerelos. Остальные треки в титрах. 100% гарантия крепкого сна и расслабления... Красивые сьемки ландшафтов, ночных городов, облаков в движении, ночного неба, моря, гор. Города - Сингапур, Лондон, Токио, Нью-Йорк, Москва, Куала-Лумпур, Сидней, фестиваль в Индио, Раротонга (острова Кука), Рочестер, Санкт-Петербург, Минск, Казань, Сан-Франциско, Венеция... Любительское видео! Два клипа от профи Роба Витворда, обладателя неоднократных призов! Не менее захватывающие работы Майкла Шаинблюма, его творчество представлено роликами - Нью-Йорк, Манхеттен в движении, Рочестер. И что меня радует, Майкл удачно подбирает музыку к своим клипам. Ничего не пришлось менять. Над клипом длительностью 5 минут, авторы работают около года. В этом фильме, более 30 видеороликов, разные стили и темы.
Time-lapse это интервальная съёмка с частотой кадров гораздо меньше обычного, порядка одного кадра в десять минут. Еще её называют цейтраферной киносъёмкой.
Технология Time-lapse, подразумевающая создание видеоматериала из кадров, сделанных через определенный интервал времени, особенно зрелищно демонстрируется роликами, в процессе съемки которых производилось смещение фотокамеры. Изменение точки съемки и ускоренное время протекания снимаемых процессов обеспечивают высокую динамичность сцены и производят на зрителя больший эффект.
Как же делаются такие видеоролики?
Помимо обычных правил создания Time-lapse, необходимо учесть следующее. При создании ролика автор после каждого кадра перемещал фотокамеру на некоторый постоянный интервал вдоль выбранной линии. Нацеливание производилось по заранее определённой точке на снимаемом объекте. При этом важно следить за тем, чтобы высота фотокамеры оставалась постоянной, а горизонт не был завален.

Приятного просмотра!

Страна: Россия, Новая Зеландия, Сингапур, США, Китай, Вьетнам и др.
Продолжительность: 02:02:22
Перевод: не нужен

Файл
Кодек: H.264
Качество: WEB-DL 720p
Видео: AVC, 1280x720, 25 fps, ~3000 kbps
Аудио: MP3, 2 ch., 320 kbps, 48 kHz

Много красивых видов! Поэтому и скринов, чуть больше обычного...





Общее:
Уникальный идентификатор : 211673588178924802254560570678443781486 (0x9F3ED9A61D8455F29C2AF1C2D29C2D6E)
Полное имя : Релакс видео 3 (2013) WEB-DL 720 от waPBX.mkv
Формат : Matroska
Версия формата : Version 4 / Version 2
Размер файла : 2,84 Гбайт
Продолжительность : 2 ч. 2 м.
Общий поток : 3322 Кбит/сек
Название фильма : Релакс видео 3 (2013) WEB-DL 720p от waPBX
Дата кодирования : UTC 2010-02-22 21:41:31
Программа кодирования : mkvmerge v5.9.0 ('On The Loose') built on Dec 9 2012 15:37:01
Библиотека кодирования : Lavf52.94.0

Видео
Идентификатор : 1
Формат : AVC
Формат/Информация : Advanced Video Codec
Профиль формата : High@L3.1
Параметр CABAC формата : Да
Параметр ReFrames формата : 2 кадра
Режим смешивания : Header stripping
Идентификатор кодека : V_MPEG4/ISO/AVC
Продолжительность : 2 ч. 2 м.
Битрейт : 3000 Кбит/сек
Ширина : 1280 пикселей
Высота : 720 пикселей
Соотношение сторон : 16:9
Режим частоты кадров : Постоянный
Частота кадров : 25,000 кадров/сек
Цветовое пространство : YUV
Субдискретизация насыщенности : 4:2:0
Битовая глубина : 8 бит
Тип развёртки : Прогрессивная
Бит/(Пиксели*Кадры) : 0.130
Размер потока : 2,51 Гбайт (88%)
Библиотека кодирования : x264 core 112 r1834 a51816a
Настройки программы : cabac=1 / ref=2 / deblock=1:0:0 / analyse=0x3:0x113 / me=hex / subme=6 / psy=1 / psy_rd=1.00:0.00 / mixed_ref=0 / me_range=16 / chroma_me=1 / trellis=0 / 8x8dct=1 / cqm=0 / deadzone=21,11 / fast_pskip=1 / chroma_qp_offset=-2 / threads=4 / sliced_threads=0 / nr=0 / decimate=1 / interlaced=0 / constrained_intra=0 / bframes=3 / b_pyramid=0 / b_adapt=1 / b_bias=0 / direct=3 / weightb=1 / open_gop=0 / weightp=2 / keyint=250 / keyint_min=25 / scenecut=40 / intra_refresh=0 / rc_lookahead=40 / rc=2pass / mbtree=1 / bitrate=3000 / ratetol=1.0 / qcomp=0.60 / qpmin=10 / qpmax=51 / qpstep=4 / cplxblur=20.0 / qblur=0.5 / ip_ratio=1.41 / aq=1:1.00
Язык : Russian
Default : Да
Forced : Нет

Аудио
Идентификатор : 2
Формат : MPEG Audio
Версия формата : Version 1
Профиль формата : Layer 3
Режим смешивания : Header stripping
Идентификатор кодека : A_MPEG/L3
Идентификатор кодека/Подсказка : MP3
Продолжительность : 2 ч. 2 м.
Вид битрейта : Постоянный
Битрейт : 320 Кбит/сек
Каналы : 2 канала
Частота : 48,0 КГц
Метод сжатия : С потерями
Размер потока : 280 Мбайт (10%)
Библиотека кодирования : LAMELAME_MAJOR_VERSI
Язык : English
Default : Да
Forced : Нет




   Похожие торренты   Торрент   Размер 
В этой теме нет новых непрочитанных сообщений. Релакс видео 2 (2013) WEB-DL 720p

163 | 64

485.01 МБ

В этой теме нет новых непрочитанных сообщений. Олафур Арнальдс - Сборник видео (2013-2015) WEB-DLRip 1080p от waPBX

31 | 5

3.4 ГБ

В этой теме нет новых непрочитанных сообщений. VA - New Age Style - Релакс на диване (2011) MP3

48 | 10

972.61 МБ

В этой теме нет новых непрочитанных сообщений. Звуки природы - Живой лес - Релакс (2006) MP3

393 | 13

672.44 МБ

В этой теме нет новых непрочитанных сообщений. Клипы - Релакс (2010-2012) HD 720p

823 | 101

199.19 МБ

В этой теме нет новых непрочитанных сообщений. Звуки природы - Здоровый сон у моря - Релакс (2007) MP3

243 | 11

166.1 МБ

В этой теме нет новых непрочитанных сообщений. Лесные звуки природы и классика - Релакс (2006) MP3

110 | 64

507.74 МБ




Вы не можете начинать темы
Вы не можете отвечать на сообщения
Вы не можете редактировать свои сообщения
Вы не можете удалять свои сообщения
Вы не можете добавлять вложения

Перейти:  
Для Мосгорсуда, Роскомнадзора и рекламодателей: mosgorsud-torrent[собачка]yandex.ru
 Вход
ppkBB3cker v.2 © 2008-2014 @ PPK
[ Time : 0.586s | 14 Queries | GZIP : Off ]

Торрент трекер RUTOR.IN, Не можете зайти на rutor.org? Какой новый адрес рутор? Какое зеркало рутор? Не работает rutor.org и зеркала? Тогда наш торрент специально для вас. Rutor.in неофициальное зеркало rutor. В случае если у Вас заблокирован rutor или вдруг Вы не можете на него зайти, то Вы без труда сможете скачать бесплатно и без рекламы последние новинки кино, игр, сериалов и прочего у нас, на Rutor.in. Не нужно использовать прокси, чтобы зайти на рутор, достаточно воспользоваться нашим ресурсом. Все новые фильмы, игры, сериалы, книги и музыка за 2013 и 2014 годы через торрент бесплатно. Скачивайте фильмы в хорошем качестве, игры для пк, xbox, playstation без регистрации. У нас вы найдете новые Зарубежные сериалы и Русские сериалы 2013, 2014, 2015 годов. Оставайтесь с нами, качайте любимые фильмы, игры, сериалы, книги и музыку.