img image001 image001 image001 image001 image001 image001 image001 image001 image001 image001 image001 image001 image001 image001 image001

Planets Sun Sun Sun
Статистика раздачи
Автор: Снежана | Размер: 747.96 МБ | Добавлен: 05 авг 2013
Раздают: 6    Качают: 10
Скачать торрент
Скачать торрент
Описание торрента

СообщениеДобавлено: 05 авг 2013 

#77

Год выпуска: 2012
Страна: Россия
Жанр: Документальный
Продолжительность: 1:03:24
Перевод: Не требуется

Релиз:

Описание: Вся проблема в невежестве нашем! Мы невежественны... И самое интересно мы даже не пытаемся выйти из этого невежества! Нам это не нужно нам и так хорошо... но так ли на самом деле нам хорошо? И видим ли мы последствия своей невежественности? Высказать знания людям - не самое главное. Важнее подготовить людей к восприятию этих знаний, умений и Новым идеям.

От автора: Мой поклон вам, друзья! Смотрю на разные видео в интернете, читаю форумы, комментарии на сайтах и поражаюсь иной раз, комментариям и статьям, написанными людьми. Даже не знаю, как поделиться своими эмоциями и мыслями, о том что я думаю и испытываю, когда вижу как мы живем, как мы работаем, как мы меняемся. Мне в этой жизни невероятно повезло. Сегодня меня окружают невероятное огромное число настоящих, не побоюсь этого слова - ТИТАНОВ, Патриотов Руси. Они всюду, они на сайтах, они в скайпе, они на видео, они на YouTube, в ЖЖ, в Контакте, в Моем Мире - их комментарии, блоги, выступления кругом. Преклоняю колено перед ТИТАНАМИ - Патриотами Земли Русской. И знаю что в этом повезло не одному мне, а всем нам. Так как они точно так же среди вас, вы с легкостью найдете их труды в Интернете, они среди ваших знакомых, они у вас в друзьях.

И кстати, многие из них - это ВЫ. Да. Просто, вы еще сомневаетесь, чего-то ждете, почему-то медлите, а они просто чуть раньше окрылились. Спустя некоторое время, труды Патриотов не остаются незамеченными. Смотрите, что происходит благодаря им, какой подъем патриотизма происходит сегодня. Сколько людей открыло глаза, многие политики даже, почитав и посмотрев их, уже сегодня размахивают распечатками. Правда, говоря что своими и говоря словно по кальке, то что было написано в инете еще год или два назад. Конечно, пару строчек вычеркивают, но читают же. Есть те, кто всё это, еще с тех пор понимал и знал, но молчал.

Сегодня видя, что говорит Народ, а главное как говорит Народ. Они себе уже могут позволить и побольше высказаться на центральных каналах. Я не в осуждение это говорю, отнюдь, наоборот - на здоровье. Читайте, цитируйте, даже можете говорить, что сами это придумали и думаете так и всегда думали. Вам тоже моя благодарность, чиновники, за такие шаги. За то что почитывате, да посматриваете что народ говорит. И пытаетесь воплотить то, что на ваш взгляд может сегодня "проскочить" и вам за это ничего не будет.

Надежду не отнять, можно загнать в угол, заставить пахать на работе по 24 часа в сутки, но никому, никому не отнять Надежду, Любовь к этому Миру и конечно же Святость, Святость этого Народа. Мы все часть Великого, Прекрасного, Безконечного. Мы Воины Света. И мы освещаем этот МИР. Бесполезно нас заставлять нас вставать на Темную Сторону. Мы потомки Великих Титанов, Атлантов, Борейцев, Шумеров и т.д. Мы сыны Мидгард-Земли Матушки. Мы все Славяне, Русы. Мы все суть - Воины Света. Мы искорки, пусть и малые, но горим ярко, надежно - всем видно...

качество: CAMRip
формат: MP4
видеокодек: H.264
аудиокодек: AAC
Видео: 1280x720, 1455 kbps, 23.976 fps
Аудио: 192 kbps, 44.1 Khz, 2 ch

General
Complete name : D:Мысли вслух - Наше Невежество.mp4
Format : MPEG-4
Format profile : Base Media / Version 2
Codec ID : mp42
File size : 748 MiB
Duration : 1h 3mn
Overall bit rate mode : Variable
Overall bit rate : 1 649 Kbps
Encoded date : UTC 2012-11-27 06:36:40
Tagged date : UTC 2012-11-27 06:36:40
gsst : 0
gstd : 3804866
gssd : BADC21261HH1362992522455122
gshh : r4---sn-4g57ln7z.c.youtube.com

Video
ID : 1
Format : AVC
Format/Info : Advanced Video Codec
Format profile : High@L3.1
Format settings, CABAC : Yes
Format settings, ReFrames : 1 frame
Codec ID : avc1
Codec ID/Info : Advanced Video Coding
Duration : 1h 3mn
Bit rate : 1 455 Kbps
Maximum bit rate : 10.4 Mbps
Width : 1 280 pixels
Height : 720 pixels
Display aspect ratio : 16:9
Frame rate mode : Variable
Frame rate : 23.976 fps
Minimum frame rate : 23.415 fps
Maximum frame rate : 24.615 fps
Color space : YUV
Chroma subsampling : 4:2:0
Bit depth : 8 bits
Scan type : Progressive
Bits/(Pixel*Frame) : 0.066
Stream size : 660 MiB (88%)
Tagged date : UTC 2012-11-27 06:36:47

Audio
ID : 2
Format : AAC
Format/Info : Advanced Audio Codec
Format profile : LC
Codec ID : 40
Duration : 1h 3mn
Bit rate mode : Variable
Bit rate : 192 Kbps
Maximum bit rate : 201 Kbps
Channel(s) : 2 channels
Channel positions : Front: L R
Sampling rate : 44.1 KHz
Compression mode : Lossy
Stream size : 87.1 MiB (12%)
Title : IsoMedia File Produced by Google, 5-11-2011
Encoded date : UTC 2012-11-27 06:36:45
Tagged date : UTC 2012-11-27 06:36:47






   Похожие торренты   Торрент   Размер 
В этой теме нет новых непрочитанных сообщений. Пусть говорят. Мысли вслух [01.04] (2014) HDTVRip 720p от waPBX

108 | 49

607.13 МБ

В этой теме нет новых непрочитанных сообщений. Руслан Гарифуллин - Вслух (2014) MP3

17 | 16

79.72 МБ

В этой теме нет новых непрочитанных сообщений. Кумиры - Фаина Раневская - Старость - невежество Бога (2010) (2011) MP3

31 | 4

259.47 МБ

В этой теме нет новых непрочитанных сообщений. Бесконечные Мысли - IV Мы Вернулись (2012) MP3 от AGR - Generalfilm

0 | 1

123.44 МБ

В этой теме нет новых непрочитанных сообщений. Читающий мысли / The Listener [03х01-07] (2012) HDTVRip | Fox Crime

44 | 6

2.51 ГБ

В этой теме нет новых непрочитанных сообщений. Западный Сектор (Объединенная Каста) - Мысли на бумаге (2012) MP3 от AGR - Generalfilm

35 | 2

82.1 МБ

В этой теме нет новых непрочитанных сообщений. Читающий мысли / The Listener [S03] (2012) HDTV 720p от Boerboel-frol | Fox Crime

28 | 8

13.29 ГБ




Вы не можете начинать темы
Вы не можете отвечать на сообщения
Вы не можете редактировать свои сообщения
Вы не можете удалять свои сообщения
Вы не можете добавлять вложения

Перейти:  
Для Мосгорсуда, Роскомнадзора и рекламодателей: mosgorsud-torrent[собачка]yandex.ru
 Вход
ppkBB3cker v.2 © 2008-2014 @ PPK
[ Time : 0.032s | 14 Queries | GZIP : Off ]

Торрент трекер RUTOR.IN, Не можете зайти на rutor.org? Какой новый адрес рутор? Какое зеркало рутор? Не работает rutor.org и зеркала? Тогда наш торрент специально для вас. Rutor.in неофициальное зеркало rutor. В случае если у Вас заблокирован rutor или вдруг Вы не можете на него зайти, то Вы без труда сможете скачать бесплатно и без рекламы последние новинки кино, игр, сериалов и прочего у нас, на Rutor.in. Не нужно использовать прокси, чтобы зайти на рутор, достаточно воспользоваться нашим ресурсом. Все новые фильмы, игры, сериалы, книги и музыка за 2013 и 2014 годы через торрент бесплатно. Скачивайте фильмы в хорошем качестве, игры для пк, xbox, playstation без регистрации. У нас вы найдете новые Зарубежные сериалы и Русские сериалы 2013, 2014, 2015 годов. Оставайтесь с нами, качайте любимые фильмы, игры, сериалы, книги и музыку.