img image001 image001 image001 image001 image001 image001 image001 image001 image001 image001 image001 image001 image001 image001 image001

Planets Sun Sun Sun
Статистика раздачи
Автор: Снежана | Размер: 1.08 ГБ | Добавлен: 06 авг 2013
Раздают: 9    Качают: 4
Скачать торрент
Скачать торрент
Описание торрента

СообщениеДобавлено: 06 авг 2013 

#77

Год выпуска: 2013
Страна: Россия
Жанр: Просвещение
Продолжительность: 2:16:18
Перевод: Не требуется

Описание: Встреча писателя Георгия Алексеевича Сидорова, автора цикла книг "Хронолого-эзотерический анализ развития современной цивилизации" в Германии с читателями его книг в феврале 2013 года. Делится с людьми о происходящем в Мире и России событий, направленных на геноцид Белых людей.

качество: CAMRip
формат: AVI
видеокодек: XviD
аудиокодек: MP3
Видео: 720x400, 1000 kbps, 25 fps
Аудио: 128 kbps, 44.1 Khz, 2 ch

General
Complete name : D:Г.А.Сидоров. Встреча с читателями в Германии 2013 - 1 часть.avi
Format : AVI
Format/Info : Audio Video Interleave
File size : 486 MiB
Duration : 59mn 55s
Overall bit rate : 1 134 Kbps

Video
ID : 0
Format : MPEG-4 Visual
Format profile : Advanced Simple@L5
Format settings, BVOP : No
Format settings, QPel : No
Format settings, GMC : No warppoints
Format settings, Matrix : Default (H.263)
Codec ID : XVID
Codec ID/Hint : XviD
Duration : 59mn 55s
Bit rate : 998 Kbps
Width : 720 pixels
Height : 400 pixels
Display aspect ratio : 16:9
Frame rate : 25.000 fps
Color space : YUV
Chroma subsampling : 4:2:0
Bit depth : 8 bits
Scan type : Progressive
Compression mode : Lossy
Bits/(Pixel*Frame) : 0.139
Stream size : 428 MiB (88%)
Writing library : XviD 62

Audio
ID : 1
Format : MPEG Audio
Format version : Version 1
Format profile : Layer 3
Codec ID : 55
Codec ID/Hint : MP3
Duration : 59mn 55s
Bit rate mode : Constant
Bit rate : 128 Kbps
Channel(s) : 2 channels
Sampling rate : 44.1 KHz
Compression mode : Lossy
Stream size : 54.9 MiB (11%)
Alignment : Split accross interleaves
Interleave, duration : 80 ms (2.00 video frames)





   Похожие торренты   Торрент   Размер 
В этой теме нет новых непрочитанных сообщений. Трехлебов А.В. - Встреча с читателями [20.12] (2012) CAMRip

2 | 2

2.46 ГБ

В этой теме нет новых непрочитанных сообщений. Николай Левашов - 36-я встреча с читателями (25.02.2012) CAMRip

2 | 1

481.27 МБ

В этой теме нет новых непрочитанных сообщений. Николай Левашов - 35-я встреча с читателями (28.01.2012) CAMRip

1 | 3

493.29 МБ

В этой теме нет новых непрочитанных сообщений. Николай Левашов - 37-я встреча с читателями (31.03.2012) CAMRip

1 | 3

500.71 МБ

В этой теме нет новых непрочитанных сообщений. Николай Левашов. 20-я встреча с читателями (21.08.2010) CamRip

1 | 6

385.33 МБ

В этой теме нет новых непрочитанных сообщений. Трехлебов А.В. - Встреча с читателями в магазине "Путь к себе" [20.03] (2008) CAMRip

0 | 22

409.83 МБ

В этой теме нет новых непрочитанных сообщений. Николай Стариков. Интервью, выступления, встречи с читателями (2015) CamRip

154 | 4

1.84 ГБ




Вы не можете начинать темы
Вы не можете отвечать на сообщения
Вы не можете редактировать свои сообщения
Вы не можете удалять свои сообщения
Вы не можете добавлять вложения

Перейти:  
Для Мосгорсуда, Роскомнадзора и рекламодателей: mosgorsud-torrent[собачка]yandex.ru
 Вход
ppkBB3cker v.2 © 2008-2014 @ PPK
[ Time : 0.103s | 14 Queries | GZIP : Off ]

Торрент трекер RUTOR.IN, Не можете зайти на rutor.org? Какой новый адрес рутор? Какое зеркало рутор? Не работает rutor.org и зеркала? Тогда наш торрент специально для вас. Rutor.in неофициальное зеркало rutor. В случае если у Вас заблокирован rutor или вдруг Вы не можете на него зайти, то Вы без труда сможете скачать бесплатно и без рекламы последние новинки кино, игр, сериалов и прочего у нас, на Rutor.in. Не нужно использовать прокси, чтобы зайти на рутор, достаточно воспользоваться нашим ресурсом. Все новые фильмы, игры, сериалы, книги и музыка за 2013 и 2014 годы через торрент бесплатно. Скачивайте фильмы в хорошем качестве, игры для пк, xbox, playstation без регистрации. У нас вы найдете новые Зарубежные сериалы и Русские сериалы 2013, 2014, 2015 годов. Оставайтесь с нами, качайте любимые фильмы, игры, сериалы, книги и музыку.