img image001 image001 image001 image001 image001 image001 image001 image001 image001 image001 image001 image001 image001 image001 image001

Planets Sun Sun Sun
Статистика раздачи
Автор: Снежана | Размер: 368.98 МБ | Добавлен: 05 авг 2013
Раздают: 35    Качают: 3
Скачать торрент
Скачать торрент
Описание торрента

СообщениеДобавлено: 05 авг 2013 

#77

Информация о фильме

Название : Исскуство Хаяо Миядзаки: как создавался мультфильм "Унесенные призраками"
Год выхода : 2001
Жанр : Документальный фильм
Режиссер : Миядзаки Хаяо
Описание : Документальный фильм о том как создавался мультфильм Унесенные призраками, и немного о других мультфильмах Миядзаки.
Страна : Япония
Производство :
Продолжительность : 00:41:54
Перевод : Любительский (двухголосый, закадровый)
Файл
Формат видео : MPG
Качество : DVDRip
Видео : XviD, 512x400 (1.280:1), 29.970 fps, ~1231 Kbps (0.178 bit/pixel)
Звук : AAC, 48.0 KHz, 2 ch, ~128 Kbps
Субтитры : нет




General
Complete name : E:/Iskusstvo_Hajao_Mijadzaki.mpg
Format : MPEG-4
Format profile : Base Media / Version 1
Codec ID : mp41
File size : 369 MiB
Duration : 41mn 53s
Overall bit rate : 1 231 Kbps
Encoded date : UTC 2006-06-25 16:10:18
Tagged date : UTC 2006-06-25 16:10:18

Video #3
ID : 3
Format : MPEG-4 Visual
Format profile : Advanced Simple@L5
Format settings, BVOP : Yes
Format settings, QPel : No
Format settings, GMC : No warppoints
Format settings, Matrix : Default (H.263)
Codec ID : 20
Duration : 41mn 53s
Bit rate mode : Variable
Bit rate : 1 095 Kbps
Maximum bit rate : 7 951 Kbps
Width : 512 pixels
Height : 400 pixels
Display aspect ratio : 1.280
Frame rate mode : Constant
Frame rate : 29.970 fps
Color space : YUV
Chroma subsampling : 4:2:0
Bit depth : 8 bits
Scan type : Progressive
Compression mode : Lossy
Bits/(Pixel*Frame) : 0.178
Stream size : 328 MiB (89%)
Writing library : em4v 4.1.6.5
Language : English
Encoded date : UTC 2006-06-25 16:10:18
Tagged date : UTC 2006-06-25 16:10:18

Audio #4
ID : 4
Format : AAC
Format/Info : Advanced Audio Codec
Format profile : LC
Codec ID : 40
Duration : 41mn 53s
Bit rate mode : Variable
Bit rate : 128 Kbps
Maximum bit rate : 152 Kbps
Channel(s) : 2 channels
Channel positions : Front: L R
Sampling rate : 48.0 KHz
Compression mode : Lossy
Stream size : 38.3 MiB (10%)
Title : Звук Nero Digital 2-кан. Русск
Language : Russian
Encoded date : UTC 2006-06-25 16:10:18
Tagged date : UTC 2006-06-25 16:10:18







   Похожие торренты   Торрент   Размер 
В этой теме нет новых непрочитанных сообщений. Ходячий замок / Howl's Moving Castle / Hauru no ugoku shiro (Хаяо Миядзаки) [Movie] [RUS(int)+JAP] [2004, аниме, мультфильм, фантастика, фэнтези, мелодрама, приключения, BDRip] [1080p]

6 | 0

10.88 ГБ

В этой теме нет новых непрочитанных сообщений. Унесенные призраками / Spirited Away (2001) DVDRip

12 | 3

2 ГБ

В этой теме нет новых непрочитанных сообщений. Унесённые призраками / Spirited Away (2001) DVDRip by ZloFenix

15 | 4

2.38 ГБ

В этой теме нет новых непрочитанных сообщений. Унесенные призраками / Sen to Chihiro no kamikakushi / Spirited away (2001) DVDRip

1492 | 40

2.05 ГБ

В этой теме нет новых непрочитанных сообщений. Унесённые призраками / Sen to Chihiro no kamikakushi (2001) BDRip | D, P, P2, A

27 | 31

6.45 ГБ

В этой теме нет новых непрочитанных сообщений. Коллекция произведений Миядзаки Хаяо / Collection of Miyazaki Hayao (1979-2013) HDRip | D,P,L1

309 | 116

21.68 ГБ

В этой теме нет новых непрочитанных сообщений. Унесённые призраками / Sen to Chihiro no Kamikakush (2001) BDRip-AVC | iPad | D,P,A

29 | 12

2.43 ГБ




Вы не можете начинать темы
Вы не можете отвечать на сообщения
Вы не можете редактировать свои сообщения
Вы не можете удалять свои сообщения
Вы не можете добавлять вложения

Перейти:  
Для Мосгорсуда, Роскомнадзора и рекламодателей: mosgorsud-torrent[собачка]yandex.ru
 Вход
ppkBB3cker v.2 © 2008-2014 @ PPK
[ Time : 0.034s | 15 Queries | GZIP : Off ]

Торрент трекер RUTOR.IN, Не можете зайти на rutor.org? Какой новый адрес рутор? Какое зеркало рутор? Не работает rutor.org и зеркала? Тогда наш торрент специально для вас. Rutor.in неофициальное зеркало rutor. В случае если у Вас заблокирован rutor или вдруг Вы не можете на него зайти, то Вы без труда сможете скачать бесплатно и без рекламы последние новинки кино, игр, сериалов и прочего у нас, на Rutor.in. Не нужно использовать прокси, чтобы зайти на рутор, достаточно воспользоваться нашим ресурсом. Все новые фильмы, игры, сериалы, книги и музыка за 2013 и 2014 годы через торрент бесплатно. Скачивайте фильмы в хорошем качестве, игры для пк, xbox, playstation без регистрации. У нас вы найдете новые Зарубежные сериалы и Русские сериалы 2013, 2014, 2015 годов. Оставайтесь с нами, качайте любимые фильмы, игры, сериалы, книги и музыку.
cron