img image001 image001 image001 image001 image001 image001 image001 image001 image001 image001 image001 image001 image001 image001 image001

Planets Sun Sun Sun
Статистика раздачи
Автор: Снежана | Размер: 134.94 МБ | Добавлен: 05 авг 2013
Раздают: 1    Качают: 2
Скачать торрент
Скачать торрент
Описание торрента

СообщениеДобавлено: 05 авг 2013 

#77

Информация о фильме

Оригинальное название: Лоббисты Ювенальной (Криминальной) Юстиции в Украине
Год выпуска: 2013
Страна: Украина
Жанр: Документальный
Продолжительность: 00:20:23
Всем кто интересуется документальной информацией и информацией для разума и ума и своего совершенствования. Рекомендую посетить мои раздачи:
Описание: Фильм про лоббистов ювенальной юстицию в Украине.
Так же в фильме рассказывается про ювенальную юстицию которую почти полностью узаконили в Украине изменив слова и некоторые значения типа: Ювенальная на Криминальная.
Ювенальная юстиция это конвейер по отбиранию детей с обычных нормальных семей и передачи детей в детские дома или к приемным родителям. В многих европейских странах это так же очень хороший бизнес на котором многие зарабатывают капиталы.
Во Франции за все существования Ювенальной Юстиции было отнято порядка 2 000 000 детей , а в Германии только за 1 год было изъято 60 000 детей. Один из прогнозов для Украины это начинать изымать от 30 000 до 50 000 детей, по сути при полном узаконивании Ювенальной Юстиции каждый ребенок из НОРМАЛЬНОЙ Украинской семьи будет в опасности и может быть просто так, или по банальной причине типа "мама заставила помыть посуду" отнят из семьи и передан в детдом, а потом скорее всего зарубежным усыновителям которые к тому же могут быть еще и нетрадиционной ориентации...
качество: DVDRip
формат: AVI
Видео: XVID, 490х360, 785 Kbps, 25.000 fps
Аудио: MP3, 128 Kbps, 44.1 KHz, 2 channels
General
Полное имя Лоббисты Ювенальной (Криминальной) Юстиции в Украине [2013].avi
Формат : AVI
Формат/Информация : Audio Video Interleave
Размер файла : 135 MiB
Продолжительность : 20mn 23s
Общий поток : 925 Kbps
Программа кодирования : MEncoder SVN-r33883(20110719-gcc4.5.2)
Библиотека кодирования : MPlayer

Video
Идентификатор : 0
Формат : MPEG-4 Visual
Профиль формата : Advanced Simple@L5
Параметр BVOP формата : 2
Параметр QPel формата : No
Параметр GMC формата : No warppoints
Параметр матрицы формата : Default (H.263)
Идентификатор кодека : XVID
Идентификатор кодека/Подсказка : XviD
Продолжительность : 20mn 23s
Битрейт : 785 Kbps
Ширина : 480 pixels
Высота : 360 pixels
Соотношение сторон : 4:3
Соотношение сторон в оригинале : 4:3
Частота кадров : 25.000 fps
Цветовое пространство : YUV
Субдискретизация насыщенности : 4:2:0
Битовая глубина : 8 bits
Тип развёртки : Progressive
Метод сжатия : Lossy
Бит/(Пиксели*Кадры) : 0.182
Размер потока : 114 MiB (85%)
Библиотека кодирования : XviD 1.2.1 (UTC 2008-12-04)

Audio
Идентификатор : 1
Формат : MPEG Audio
Версия формата : Version 1
Профиль формата : Layer 3
Режим : Joint stereo
Расширение режима : MS Stereo
Идентификатор кодека : 55
Идентификатор кодека/Подсказка : MP3
Продолжительность : 20mn 23s
Вид битрейта : Constant
Битрейт : 128 Kbps
Каналы : 2 channels
Частота : 44.1 KHz
Метод сжатия : Lossy
Задержка видео : 40ms
Размер потока : 18.7 MiB (14%)
Выравнивание : Aligned on interleaves
Продолжительность промежутка : 26 ms (0.65 video frame)
Время предзагрузки промежутка : 522 ms
Библиотека кодирования : LAME3.98.4










   Похожие торренты   Торрент   Размер 
В этой теме нет новых непрочитанных сообщений. Свобода № 5492-IV. Создание электронного концлагеря в Украине (2013) DVDRip

26 | 5

146.07 МБ

В этой теме нет новых непрочитанных сообщений. Сергей Рязанцев - Территориальные громады - прямая дорога к Народовластию и Копному праву в Украине (2013) DVDRip

1 | 2

1.06 ГБ

В этой теме нет новых непрочитанных сообщений. Сергей Рязанцев и Дмитрий Мягков - Территориальные громады. Основы прямого народовластия в Украине (2013) DVDRip

0 | 2

652.72 МБ

В этой теме нет новых непрочитанных сообщений. Победа на Правобережной Украине (1945) DVDRip-AVC от New-Team

126 | 5

744.32 МБ

В этой теме нет новых непрочитанных сообщений. Победа на Правобережной Украине (1945) DVDRip от New-Team

16 | 3

744.74 МБ

В этой теме нет новых непрочитанных сообщений. В Украине есть таланты! / Україна має талант! [05х01-13] (2013) SATRip

0 | 6

36.01 ГБ

В этой теме нет новых непрочитанных сообщений. Политика с Петром Толстым. Поможет ли российская поддержка Украине? [эфир от 18.12] (2013) SATRip от РиперАМ

0 | 1

781.94 МБ




Вы не можете начинать темы
Вы не можете отвечать на сообщения
Вы не можете редактировать свои сообщения
Вы не можете удалять свои сообщения
Вы не можете добавлять вложения

Перейти:  
Для Мосгорсуда, Роскомнадзора и рекламодателей: mosgorsud-torrent[собачка]yandex.ru
 Вход
ppkBB3cker v.2 © 2008-2014 @ PPK
[ Time : 5.122s | 14 Queries | GZIP : Off ]

Торрент трекер RUTOR.IN, Не можете зайти на rutor.org? Какой новый адрес рутор? Какое зеркало рутор? Не работает rutor.org и зеркала? Тогда наш торрент специально для вас. Rutor.in неофициальное зеркало rutor. В случае если у Вас заблокирован rutor или вдруг Вы не можете на него зайти, то Вы без труда сможете скачать бесплатно и без рекламы последние новинки кино, игр, сериалов и прочего у нас, на Rutor.in. Не нужно использовать прокси, чтобы зайти на рутор, достаточно воспользоваться нашим ресурсом. Все новые фильмы, игры, сериалы, книги и музыка за 2013 и 2014 годы через торрент бесплатно. Скачивайте фильмы в хорошем качестве, игры для пк, xbox, playstation без регистрации. У нас вы найдете новые Зарубежные сериалы и Русские сериалы 2013, 2014, 2015 годов. Оставайтесь с нами, качайте любимые фильмы, игры, сериалы, книги и музыку.