img image001 image001 image001 image001 image001 image001 image001 image001 image001 image001 image001 image001 image001 image001 image001

Planets Sun Sun Sun
Статистика раздачи
Автор: Снежана | Размер: 9 ГБ | Добавлен: 05 авг 2013
Раздают: 159    Качают: 13
Скачать торрент
Скачать торрент
Описание торрента

СообщениеДобавлено: 05 авг 2013 

#77

Информация о фильме
Название: Разговор на кухне со С.Пеуновой. Планы по разрушению России военными и невоенными способами.
Год выхода: 2013
Режиссер: raznesi.info
В ролях: Россия, Мы..

О фильме:
Корреспонденты raznesi.info побывали в гостях у председателя политической партии "ВОЛЯ" Светланы Пеуновой.

За чашкой чая Светлана Михайловна рассказала о своих путешествиях и поделилась самыми инетресными наблюдениями. В первой части передачи раскрываются эзотерические тайны Великой Отечественной войны и современной политики. В чем сила и загадка Мамаева Кургана? Куда зовет солдат Родина-мать? Зачем Сталину и Гитлеру были нужны массовые репрессии и расстрелы? Что общего между индейцами майя, Гилером и сирийскими повстанцами? Что скрывает Мавзолей Ленина и почему "Газпром" потратил 700 миллионов рублей на создание мавзолея для прицессы Укока?

...а также: почему она считает, что против России идет невидимая война.Британский разведчик Джон Колеман называл Ельцина агентом английской разведки. Владимир Путин признал, что реформы 90-х годов проводились под контролем иностранных спецслужб. Фокусы тайных выборов. Почему жителей Крымска не предупредили о надвигающейся катастрофе. Угроза войны - Сирия и Китай. Как народу преодолеть страх и что делать?

Что ей известно об инопланетянах и внеземном разуме и развеяла сплетни о том, что она якобы предрекала конец света. Собеседники поделились случаями из своей жизни. Оказывается, американский астронавт Армстронг засвидетельствовал, что на Луне им была обнаружена база инопланетян. Есть сведения и о том, что правители многих государств встречались с инопланетянами.

О том, как Махатме Ганди удалось победить колонизаторов без оружия. Индийцы вернулись к своей исконной вере, это дало им силу. И русскому народу нужно вспомнить о своих традиционных верованиях, о той вере, которая была у наших предков до 10 века. Владыка Майтрейя, Будда, Учитель человечества, который руководит эволюцией планеты и направляет человечество.

Как ей пришлось защищать свои книги от обвинений в экстремистской направленности.
Сила справедливости - в воле народа. Почему власть так боится предоставить слово людям, которые говорят правду. От решения народа, каждого гражданина зависит судьба всей страны. Ответственность народа за убийство царя и расстрел Белого дома. Выборы должны быть честными, равными и открытыми.

О том, как Самара готовится к чемпионату мира по футболу 2018 года, как прошли публичные слушания и какое участие в этой проблеме принимает партия "ВОЛЯ". Кому выгодно строительство стадиона и кто будет получать дивиденды? Кому нужна Самарская земля? Планы по разрушению России военными и невоенными способами. Методы борьбы с оппозиционерами. Сила русского характера.

О своем богатом опыте участия в выборах, о способах "легального" снятия неугодного кандидата с дистанции, об альтернативе тайных выборов, о слежке и контроле борцов за права народа.

О том, как муниципальный фильтр нарушает конституцию, работают ли депутаты на благо народа, как законодатели ограничивают доступ людей во власть, о причине самовыдвижения Собянина на выборах мэра Москвы.

General
Unique ID : 227161112400677541887678835712297834431 (0xAAE5A38C268B9EC08AB5ABA78CF897BF)
Complete name : Разговор на кухне со С.Пеуновой. Планы по разрушению России военными и невоенными способами.mkv
Format : Matroska
Format version : Version 4 / Version 2
File size : 9.00 GiB
Duration : 2h 56mn
Overall bit rate mode : Variable
Overall bit rate : 7 284 Kbps
Encoded date : UTC 2013-06-26 04:39:48
Writing application : mkvmerge v6.1.0 ('Old Devil') built on Mar 2 2013 14:32:37
Writing library : libebml v1.3.0 + libmatroska v1.4.0

Video
ID : 1
Format : AVC
Format/Info : Advanced Video Codec
Format profile : High@L3.1
Format settings, CABAC : Yes
Format settings, ReFrames : 5 frames
Codec ID : V_MPEG4/ISO/AVC
Duration : 2h 56mn
Bit rate mode : Variable
Bit rate : 6 755 Kbps
Maximum bit rate : 7 000 Kbps
Width : 1 280 pixels
Height : 720 pixels
Display aspect ratio : 16:9
Frame rate : 24.000 fps
Standard : NTSC
Color space : YUV
Chroma subsampling : 4:2:0
Bit depth : 8 bits
Scan type : Progressive
Bits/(Pixel*Frame) : 0.305
Stream size : 8.35 GiB (93%)
Writing library : x264 core 124
Encoding settings : cabac=1 / ref=5 / deblock=1:0:0 / analyse=0x3:0x133 / me=umh / subme=9 / psy=1 / psy_rd=1.00:0.00 / mixed_ref=1 / me_range=24 / chroma_me=1 / trellis=2 / 8x8dct=1 / cqm=2 / deadzone=21,11 / fast_pskip=1 / chroma_qp_offset=-2 / threads=6 / sliced_threads=0 / slices=1 / nr=0 / decimate=1 / interlaced=0 / bluray_compat=0 / constrained_intra=0 / bframes=3 / b_pyramid=0 / b_adapt=2 / b_bias=0 / direct=3 / weightb=1 / open_gop=0 / weightp=1 / keyint=250 / keyint_min=24 / scenecut=0 / intra_refresh=0 / rc_lookahead=60 / rc=crf / mbtree=1 / crf=1.0 / qcomp=0.60 / qpmin=3 / qpmax=69 / qpstep=4 / vbv_maxrate=7000000 / vbv_bufsize=7000000 / crf_max=51.0 / nal_hrd=vbr / ip_ratio=1.40 / aq=1:1.00
Default : Yes
Forced : No
Color primaries : BT.709-5, BT.1361, IEC 61966-2-4, SMPTE RP177
Transfer characteristics : BT.709-5, BT.1361
Matrix coefficients : BT.709-5, BT.1361, IEC 61966-2-4 709, SMPTE RP177

Audio
ID : 2
Format : AC-3
Format/Info : Audio Coding 3
Mode extension : CM (complete main)
Format settings, Endianness : Big
Codec ID : A_AC3
Duration : 2h 56mn
Bit rate mode : Constant
Bit rate : 384 Kbps
Channel(s) : 2 channels
Channel positions : Front: L R
Sampling rate : 48.0 KHz
Bit depth : 16 bits
Compression mode : Lossy
Stream size : 486 MiB (5%)
Default : Yes
Forced : No

Страна: Россия
Студия: raznesi.info
Продолжительность: 02:56:58
Перевод: не требуется

Файл
Кодек: x264
Качество: HDRip
Видео: 1280x720 24fps 7 284 Kbps
Звук: Dolby AC3 48000Hz Stereo 2 channels 384 Kbps

Семпл



Релиз от: raznesi.info



   Похожие торренты   Торрент   Размер 
В этой теме нет новых непрочитанных сообщений. Разговор Начистоту / Прямой разговор / Straight Talk (1992) BDRip 720p от MediaClub | P2

12 | 2

3.28 ГБ

В этой теме нет новых непрочитанных сообщений. Инопланетяне раскрывают свои планы: День оцепеневшего запада / Alien Showdown: The Day the Old West Stood Still (2013) HDRip | L1

632 | 77

1.36 ГБ

В этой теме нет новых непрочитанных сообщений. Разговор Начистоту / Прямой разговор / Straight Talk (1992) BDRip-AVC от MediaClub | P2

13 | 2

2.08 ГБ

В этой теме нет новых непрочитанных сообщений. Планы изменились / Change of Plans (2011) HDRip

9 | 1

1.45 ГБ

В этой теме нет новых непрочитанных сообщений. Лучшие планы / Best Laid Plans (2012) HDRip | L2

9 | 3

1.46 ГБ

В этой теме нет новых непрочитанных сообщений. Планы изменились / Change of Plans (2011) HDRip

3 | 1

697.69 МБ

В этой теме нет новых непрочитанных сообщений. Лучшие планы / Best Laid Plans (2012) HDRip | L2

1 | 1

727.27 МБ




Вы не можете начинать темы
Вы не можете отвечать на сообщения
Вы не можете редактировать свои сообщения
Вы не можете удалять свои сообщения
Вы не можете добавлять вложения

Перейти:  
Для Мосгорсуда, Роскомнадзора и рекламодателей: mosgorsud-torrent[собачка]yandex.ru
 Вход
ppkBB3cker v.2 © 2008-2014 @ PPK
[ Time : 0.034s | 14 Queries | GZIP : Off ]

Торрент трекер RUTOR.IN, Не можете зайти на rutor.org? Какой новый адрес рутор? Какое зеркало рутор? Не работает rutor.org и зеркала? Тогда наш торрент специально для вас. Rutor.in неофициальное зеркало rutor. В случае если у Вас заблокирован rutor или вдруг Вы не можете на него зайти, то Вы без труда сможете скачать бесплатно и без рекламы последние новинки кино, игр, сериалов и прочего у нас, на Rutor.in. Не нужно использовать прокси, чтобы зайти на рутор, достаточно воспользоваться нашим ресурсом. Все новые фильмы, игры, сериалы, книги и музыка за 2013 и 2014 годы через торрент бесплатно. Скачивайте фильмы в хорошем качестве, игры для пк, xbox, playstation без регистрации. У нас вы найдете новые Зарубежные сериалы и Русские сериалы 2013, 2014, 2015 годов. Оставайтесь с нами, качайте любимые фильмы, игры, сериалы, книги и музыку.