img image001 image001 image001 image001 image001 image001 image001 image001 image001 image001 image001 image001 image001 image001 image001

Planets Sun Sun Sun
Статистика раздачи
Автор: Снежана | Размер: 849.34 МБ | Добавлен: 05 авг 2013
Раздают: 94    Качают: 5
Скачать торрент
Скачать торрент
Описание торрента

СообщениеДобавлено: 05 авг 2013 

#77

Информация о фильме
Режиссер / Телекомпания: Студия "Слово"
Год выпуска: 2013
Жанр: Документальный

Всем кто интересуется документальной информацией и информацией для разума и ума и своего совершенствования. Рекомендую посетить мои раздачи:
Описание:
Сегодня нам пытаются навязать различные формы безумия, которые уже давно считаются нормой в западных странах: эвтаназия стариков, однополые браки, разрушение института семьи, секспросвет в школе и в детсадах, толерантность ко всем видам извращений.

Так в Швеции, руководство одной из престижных гимназий распорядилось открыть еще одну, дополнительную раздевалку для детей, не определившихся со своим полом.

Недавно парламент Швеции принял закон «Об искусственном оплодотворении лесбийских пар» за счёт государства. О каких семейных ценностях может идти речь, если там ежегодно на 38 тыс. браков - 31 тыс. разводов. Государство финансирует исследования, которые должны доказать положительное влияние таких отношений на детей. Мол, «переходя после очередных разводов от одних родителей к другим, дети приобретают жизненный опыт и опыт социальных отношений, который им пригодится во взрослой жизни».

Во всей Европе введены сексуальные стандарты, по которым родители совместно с медиками и детсадовскими работниками обязаны учить детей «разным видам любви», в том числе, обязывают учить европейских детей мастурбации строго до четырех лет и никак не позже.

Продолжительность: 03:01:41
Качество видео: DVDRip

Видеокодек: Xvid
Битрейт видео: ~515 Кбит/сек
Размер кадра: 352х288
Аудиокодек: MP3
Битрейт аудио: 128 Кбит/сек

General
Полное имя Падение запада (Новый мировой педопорядок) [фильм Галины Царёвой] 2013.avi
Формат : AVI
Формат/Информация : Audio Video Interleave
Размер файла : 849 MiB
Продолжительность : 3h 1mn
Общий поток : 655 Kbps
Программа кодирования : Lavf52.32.0

Video
Идентификатор : 0
Формат : MPEG-4 Visual
Профиль формата : Simple@L3
Параметр BVOP формата : No
Параметр QPel формата : No
Параметр GMC формата : No warppoints
Параметр матрицы формата : Default (H.263)
Идентификатор кодека : XVID
Идентификатор кодека/Подсказка : XviD
Продолжительность : 3h 1mn
Битрейт : 515 Kbps
Ширина : 352 pixels
Высота : 288 pixels
Соотношение сторон : 1.222
Частота кадров : 25.000 fps
Стандарт вещания : PAL
Цветовое пространство : YUV
Субдискретизация насыщенности : 4:2:0
Битовая глубина : 8 bits
Тип развёртки : Progressive
Метод сжатия : Lossy
Бит/(Пиксели*Кадры) : 0.203
Размер потока : 667 MiB (79%)
Библиотека кодирования : XviD 1.2.1 (UTC 2008-12-04)

Audio
Идентификатор : 1
Формат : MPEG Audio
Версия формата : Version 1
Профиль формата : Layer 3
Режим : Joint stereo
Расширение режима : MS Stereo
Идентификатор кодека : 55
Идентификатор кодека/Подсказка : MP3
Продолжительность : 3h 1mn
Вид битрейта : Constant
Битрейт : 128 Kbps
Каналы : 2 channels
Частота : 44.1 KHz
Метод сжатия : Lossy
Размер потока : 166 MiB (20%)
Выравнивание : Aligned on interleaves
Продолжительность промежутка : 26 ms (0.65 video frame)
Библиотека кодирования : LAME3.98.2








   Похожие торренты   Торрент   Размер 
В этой теме нет новых непрочитанных сообщений. Человек с запада / The Westerner (1940) DVDRip от egoleshik

7 | 1

1.19 ГБ

В этой теме нет новых непрочитанных сообщений. Человек с Запада / Man of the West (1958) DVDRip от Киномагия

49 | 4

1.37 ГБ

В этой теме нет новых непрочитанных сообщений. Легенды Дикого Запада / Tall Tale (1995) DVDRip | P

99 | 25

1.55 ГБ

В этой теме нет новых непрочитанных сообщений. Пять ружей Запада / Five Guns West (1955) DVDRip от egoleshik | P, P2

137 | 9

1.37 ГБ

В этой теме нет новых непрочитанных сообщений. Золотой глобус. Выпуск 39. Турция. Встреча Востока и Запада (2009) DVDRip от KinoZalSat

10 | 5

1.36 ГБ

В этой теме нет новых непрочитанных сообщений. Дикие девочки с голого запада / Wild Gals of the Naked West (1962) DVDRip

2 | 32

699.21 МБ

В этой теме нет новых непрочитанных сообщений. Золотой Глобус. Выпуск №39. Турция. Встреча Востока и Запада (2009) DVDRip от KINOREAKTOR

3 | 2

1.37 ГБ




Вы не можете начинать темы
Вы не можете отвечать на сообщения
Вы не можете редактировать свои сообщения
Вы не можете удалять свои сообщения
Вы не можете добавлять вложения

Перейти:  
Для Мосгорсуда, Роскомнадзора и рекламодателей: mosgorsud-torrent[собачка]yandex.ru
 Вход
ppkBB3cker v.2 © 2008-2014 @ PPK
[ Time : 0.050s | 14 Queries | GZIP : Off ]

Торрент трекер RUTOR.IN, Не можете зайти на rutor.org? Какой новый адрес рутор? Какое зеркало рутор? Не работает rutor.org и зеркала? Тогда наш торрент специально для вас. Rutor.in неофициальное зеркало rutor. В случае если у Вас заблокирован rutor или вдруг Вы не можете на него зайти, то Вы без труда сможете скачать бесплатно и без рекламы последние новинки кино, игр, сериалов и прочего у нас, на Rutor.in. Не нужно использовать прокси, чтобы зайти на рутор, достаточно воспользоваться нашим ресурсом. Все новые фильмы, игры, сериалы, книги и музыка за 2013 и 2014 годы через торрент бесплатно. Скачивайте фильмы в хорошем качестве, игры для пк, xbox, playstation без регистрации. У нас вы найдете новые Зарубежные сериалы и Русские сериалы 2013, 2014, 2015 годов. Оставайтесь с нами, качайте любимые фильмы, игры, сериалы, книги и музыку.