img image001 image001 image001 image001 image001 image001 image001 image001 image001 image001 image001 image001 image001 image001 image001

Planets Sun Sun Sun
Статистика раздачи
Автор: Снежана | Размер: 7.46 ГБ | Добавлен: 05 авг 2013
Раздают: 9    Качают: 2
Скачать торрент
Скачать торрент
Описание торрента

СообщениеДобавлено: 05 авг 2013 

#77

Информация о фильме
Автор (режиссер): Шри Шри Рави Шанкар
Название: Кено Упанишады. Комментарии
Год выпуска: 2012
Жанр: Йога, самопознание
Продолжительность: 05:30:33
Перевод: P1 - Профессиональный одноголосый закадровый

Всем кто интересуется документальной информацией и информацией для разума и ума и своего совершенствования. Рекомендую посетить мои раздачи:
Описание:
" Кена - это вопрос. Кена Упанишада сама по себе озночает: "Что? Где? Когда? Почему?" Моменты удивления, моменты поиска, моменты изумлени, пытливости и любопытства, - они очень ценны. В эти моменты болтающий ум останавливается, и происходит скачок в непознанное. Все время находясь в познанном вы ограничены. Открыть себя непознанному - это путь к бесконечности, путь к безграничному"
Шри Шри Рави Шанкар

Содержание:
01. Введение 28:33
02. Открывая себя для непознанного 29:56
03. Самопознание 31:06
04. Мир бессмертия 28:07
05. Четвертое измерение 33:56
06. Ощущая бесконечность 29:35
07. Вселенная как она есть 24:21
08. За переделами чудес 37:58
09. Жить в истине 28:55
10. Шива - четвертое измерение сознания 39:12
11. Ответы на вопросы 18:03

Качество видео: DVDRip
Видеокодек: H.264
Битрейт видео: ~3027 kbps, 25 fps
Размер кадра: 720x576 (1.25:1)
Аудиокодек: MP3
Битрейт аудио: 192 kbps, 2 ch, 44.1 kHz

General
Полное имя КЕНО УПАНИШАДЫ_комментарии Шри Шри Рави Шанкара�3_Самопознание.avi
Формат : AVI
Формат/Информация : Audio Video Interleave
Размер файла : 735 MiB
Продолжительность : 31mn 49s
Общий поток : 3 229 Kbps

Video
Идентификатор : 0
Формат : AVC
Формат/Информация : Advanced Video Codec
Профиль формата : Main@L3.0
Параметр CABAC формата : Yes
Параметр ReFrames формата : 1 frame
Идентификатор кодека : X264
Идентификатор кодека/Информация : XiWave GNU GPL x264 MPEG-4
Продолжительность : 31mn 49s
Битрейт : 3 025 Kbps
Ширина : 720 pixels
Высота : 576 pixels
Соотношение сторон : 4:3
Частота кадров : 25.000 fps
Стандарт вещания : PAL
Цветовое пространство : YUV
Субдискретизация насыщенности : 4:2:0
Битовая глубина : 8 bits
Тип развёртки : Progressive
Бит/(Пиксели*Кадры) : 0.292
Размер потока : 688 MiB (94%)

Audio
Идентификатор : 1
Формат : MPEG Audio
Версия формата : Version 1
Профиль формата : Layer 3
Идентификатор кодека : 55
Идентификатор кодека/Подсказка : MP3
Продолжительность : 31mn 49s
Вид битрейта : Constant
Битрейт : 192 Kbps
Каналы : 2 channels
Частота : 44.1 KHz
Метод сжатия : Lossy
Размер потока : 43.7 MiB (6%)
Выравнивание : Split accross interleaves
Продолжительность промежутка : 26 ms (0.65 video frame)
Время предзагрузки промежутка : 311 ms





   Похожие торренты   Торрент   Размер 
В этой теме нет новых непрочитанных сообщений. Кено Упанишады. Комментарии Шри Шри Рави Шанкара (2012) MP3

44 | 14

302.7 МБ

В этой теме нет новых непрочитанных сообщений. Бхагават-гита. Комментарии Шри Шри Рави Шанкара (2011) DVDRip

5 | 18

11.6 ГБ

В этой теме нет новых непрочитанных сообщений. Шива Сутры. Комментарии Шри Шри Рави Шанкара (2004) DVDRip

7 | 5

5.34 ГБ

В этой теме нет новых непрочитанных сообщений. Бхакти Сутры Нарады. Комментарии Шри Шри Рави Шанкара (2009) DVDRip

153 | 2

12.86 ГБ

В этой теме нет новых непрочитанных сообщений. Аштавакра Гита. Комментарии Шри Шри Рави Шанкара. Диск 01-18 (2007) DVDRip-AVC

40 | 10

4.01 ГБ

В этой теме нет новых непрочитанных сообщений. Бхагавад-гита. Комментарии Шри Шри Рави Шанкара (2011) MP3

42 | 2

475.44 МБ

В этой теме нет новых непрочитанных сообщений. Аштавакра Гита. Комментарии Шри Шри Рави Шанкара (2007) MP3

26 | 7

1.32 ГБ




Вы не можете начинать темы
Вы не можете отвечать на сообщения
Вы не можете редактировать свои сообщения
Вы не можете удалять свои сообщения
Вы не можете добавлять вложения

Перейти:  
Для Мосгорсуда, Роскомнадзора и рекламодателей: mosgorsud-torrent[собачка]yandex.ru
 Вход
ppkBB3cker v.2 © 2008-2014 @ PPK
[ Time : 0.021s | 16 Queries | GZIP : Off ]

Торрент трекер RUTOR.IN, Не можете зайти на rutor.org? Какой новый адрес рутор? Какое зеркало рутор? Не работает rutor.org и зеркала? Тогда наш торрент специально для вас. Rutor.in неофициальное зеркало rutor. В случае если у Вас заблокирован rutor или вдруг Вы не можете на него зайти, то Вы без труда сможете скачать бесплатно и без рекламы последние новинки кино, игр, сериалов и прочего у нас, на Rutor.in. Не нужно использовать прокси, чтобы зайти на рутор, достаточно воспользоваться нашим ресурсом. Все новые фильмы, игры, сериалы, книги и музыка за 2013 и 2014 годы через торрент бесплатно. Скачивайте фильмы в хорошем качестве, игры для пк, xbox, playstation без регистрации. У нас вы найдете новые Зарубежные сериалы и Русские сериалы 2013, 2014, 2015 годов. Оставайтесь с нами, качайте любимые фильмы, игры, сериалы, книги и музыку.