img image001 image001 image001 image001 image001 image001 image001 image001 image001 image001 image001 image001 image001 image001 image001

Planets Sun Sun Sun
Статистика раздачи
Автор: Снежана | Размер: 1.2 ГБ | Добавлен: 18 дек 2013
Раздают: 166    Качают: 5
Скачать торрент
Скачать торрент
Описание торрента

СообщениеДобавлено: 18 дек 2013 

#77

Информация о фильме
Название: Евгений Грин - Если девушка отказала, метод 3 подхода - 2 секса
Год выхода: 2013
Режиссер: Евгений Грин
В ролях: Евгений Грин

О фильме:
Сколько девушек не хотят с тобой знакомиться? Обидно?
Как часто ты слышишь "У меня есть парень"?
Ты же понимаешь, что они сливают тебя мягким вариантом, чтобы не опустить еще больше.
Есть способ, как повысить свою результативность. Данную методику я использовал при индивидуальном обучении своих учеников соблазнению. Я дам тебе новую рабочую технологию, которая позволяет сделать всего 3 подхода к понравившимся девушкам и получить секс с 2-мя из них.
Она отлично подходит для новичков и для опытных. Однозначно ее надо использовать, если у тебя более 50% отказов в подходах.
Больше не надо делать десятки, сотни походов!
Больше не надо портить себе настроение отказами!
Бери данный метод на вооружение и используй. Только выполняй строго, что дам в этом тренинге. Тогда я гарантирую тебе такой результат.
Код:
Общее
Полное имя                               : G:videoЕвгений Грин - Если девушка отказала, метод 3 подхода - 2 секса.wmv
Формат                                   : Windows Media
Размер файла                             : 1,20 Гбайт
Продолжительность                        : 51 м.
Режим общего битрейта                    : Постоянный
Общий поток                              : 3336 Кбит/сек
Максимальный общий битрейт               : 3348 Кбит/сек
Дата кодирования                         : UTC 2013-08-30 18:30:30.177

Видео
Идентификатор                            : 2
Формат                                   : VC-1
Профиль формата                          : MP@ML
Идентификатор кодека                     : WMV3
Идентификатор кодека/Информация          : Windows Media Video 9
Идентификатор кодека/Подсказка           : WMV3
Описание кодека                          : Windows Media Video 9 - Professional
Продолжительность                        : 51 м.
Вид битрейта                             : Постоянный
Битрейт                                  : 3000 Кбит/сек
Ширина                                   : 720 пикселей
Высота                                   : 576 пикселей
Соотношение сторон                       : 5:4
Частота кадров                           : 25,000 кадров/сек
Стандарт вещания                         : PAL
Битовая глубина                          : 8 бит
Тип развёртки                            : Прогрессивная
Метод сжатия                             : С потерями
Бит/(Пиксели*Кадры)                      : 0.289
Размер потока                            : 1,08 Гбайт (90%)
Язык                                     : English (US)

Аудио
Идентификатор                            : 1
Формат                                   : WMA
Версия формата                           : Version 2
Идентификатор кодека                     : 161
Идентификатор кодека/Информация          : Windows Media Audio
Описание кодека                          : Windows Media Audio 9.2 - 320 kbps, 44 kHz, stereo (A/V) 1-pass CBR
Продолжительность                        : 51 м.
Вид битрейта                             : Постоянный
Битрейт                                  : 320 Кбит/сек
Каналы                                   : 2 канала
Частота                                  : 44,1 КГц
Битовая глубина                          : 16 бит
Размер потока                            : 118 Мбайт (10%)
Язык                                     : English (US)

Страна: Россия
Продолжительность: 00:51:32
Перевод: нет

Файл
Кодек: WMV
Качество: CAM
Видео: 720х576 (5:4), 25 fps, Windows Media Video 9, 3 000 Kbps, 0.26 bit/pixel
Звук: 44.1 KHz, Windows Media Audio 9.2, 2 ch, 320 Kbps, Russian




   Похожие торренты   Торрент   Размер 
В этой теме нет новых непрочитанных сообщений. Евгений Грин - Как убрать страх подхода к девушке (2013) CAMRip

163 | 36

2.23 ГБ

В этой теме нет новых непрочитанных сообщений. Евгений Грин - Как создать рекламу (2013) CAMRip

154 | 11

1.96 ГБ

В этой теме нет новых непрочитанных сообщений. Евгений Грин - О чем говорить с девушкой (2013) CAMRip

29 | 18

847.93 МБ

В этой теме нет новых непрочитанных сообщений. Евгений Грин - Как найти клиентов (2013) CAMRip

50 | 43

2.2 ГБ

В этой теме нет новых непрочитанных сообщений. Евгений Грин - Как выйти в Астрал (2013) CAMRip

157 | 10

2.16 ГБ

В этой теме нет новых непрочитанных сообщений. Евгений Грин - Будь здоров (2013) CAMRip

204 | 15

2.57 ГБ

В этой теме нет новых непрочитанных сообщений. Евгений Грин - Тесты на экстрасенсорные способности (2013) CAMRip

247 | 15

2.4 ГБ




Вы не можете начинать темы
Вы не можете отвечать на сообщения
Вы не можете редактировать свои сообщения
Вы не можете удалять свои сообщения
Вы не можете добавлять вложения

Перейти:  
Для Мосгорсуда, Роскомнадзора и рекламодателей: mosgorsud-torrent[собачка]yandex.ru
 Вход
ppkBB3cker v.2 © 2008-2014 @ PPK
[ Time : 0.024s | 16 Queries | GZIP : Off ]

Торрент трекер RUTOR.IN, Не можете зайти на rutor.org? Какой новый адрес рутор? Какое зеркало рутор? Не работает rutor.org и зеркала? Тогда наш торрент специально для вас. Rutor.in неофициальное зеркало rutor. В случае если у Вас заблокирован rutor или вдруг Вы не можете на него зайти, то Вы без труда сможете скачать бесплатно и без рекламы последние новинки кино, игр, сериалов и прочего у нас, на Rutor.in. Не нужно использовать прокси, чтобы зайти на рутор, достаточно воспользоваться нашим ресурсом. Все новые фильмы, игры, сериалы, книги и музыка за 2013 и 2014 годы через торрент бесплатно. Скачивайте фильмы в хорошем качестве, игры для пк, xbox, playstation без регистрации. У нас вы найдете новые Зарубежные сериалы и Русские сериалы 2013, 2014, 2015 годов. Оставайтесь с нами, качайте любимые фильмы, игры, сериалы, книги и музыку.