img image001 image001 image001 image001 image001 image001 image001 image001 image001 image001 image001 image001 image001 image001 image001

Planets Sun Sun Sun
Статистика раздачи
Автор: Снежана | Размер: 1.06 ГБ | Добавлен: 18 дек 2013
Раздают: 90    Качают: 16
Скачать торрент
Скачать торрент
Описание торрента

СообщениеДобавлено: 18 дек 2013 

#77

Информация о фильме
Название: Евгений Грин - Быстрое соблазнение - секс прямо сегодня (Соблазнение, пикап)
Год выхода: 2013
Режиссер: Евгений Грин
В ролях: Евгений Грин

О фильме:
Пошаговые инструкции, как прямо сегодня получить желанный секс.

За много лет соблазнения девушек у меня выработались рабочие, очень эффективные алгоритмы быстрого соблазнения. Этот вариант соблазнения самый сложный. Кто пробовал, знает это на своем опыте. Небольшая ошибка, мелкий недосмотр и ты в пролете мимо секса сегодня. Все начинает затягиваться и время упущено, удовольствий нет. В сухом остатке ощущения неудачника.
В данном тренинге я объясню детали, которые дают серьезный вклад в успех быстрого соблазнения. По отдельности может это показаться незначительными мелочами, но именно из них все собирается в единую картину.
Данный вид соблазнения очень интересен. Это азарт, драйв, море эмоций. Именно по этой причине периодически полезно уметь быстро соблазнять девушек.
Я не буду тебе рассказывать о клубном соблазнении. В данном случае пойдет речь о соблазнении девушек на улицах, в метро, торговых центрах, кафе и ресторанах, т.е. в тех местах где ты бываешь регулярно.

Код:
Общее
Полное имя                               : G:videoЕвгений Грин - Быстрое соблазнение - секс прямо сегодня.wmv
Формат                                   : Windows Media
Размер файла                             : 1,06 Гбайт
Продолжительность                        : 45 м.
Режим общего битрейта                    : Постоянный
Общий поток                              : 3336 Кбит/сек
Максимальный общий битрейт               : 3348 Кбит/сек
Дата кодирования                         : UTC 2013-08-30 20:50:21.840

Видео
Идентификатор                            : 2
Формат                                   : VC-1
Профиль формата                          : MP@ML
Идентификатор кодека                     : WMV3
Идентификатор кодека/Информация          : Windows Media Video 9
Идентификатор кодека/Подсказка           : WMV3
Описание кодека                          : Windows Media Video 9 - Professional
Продолжительность                        : 45 м.
Вид битрейта                             : Постоянный
Битрейт                                  : 3000 Кбит/сек
Ширина                                   : 720 пикселей
Высота                                   : 576 пикселей
Соотношение сторон                       : 5:4
Частота кадров                           : 25,000 кадров/сек
Стандарт вещания                         : PAL
Битовая глубина                          : 8 бит
Тип развёртки                            : Прогрессивная
Метод сжатия                             : С потерями
Бит/(Пиксели*Кадры)                      : 0.289
Размер потока                            : 978 Мбайт (90%)
Язык                                     : English (US)

Аудио
Идентификатор                            : 1
Формат                                   : WMA
Версия формата                           : Version 2
Идентификатор кодека                     : 161
Идентификатор кодека/Информация          : Windows Media Audio
Описание кодека                          : Windows Media Audio 9.2 - 320 kbps, 44 kHz, stereo (A/V) 1-pass CBR
Продолжительность                        : 45 м.
Вид битрейта                             : Постоянный
Битрейт                                  : 320 Кбит/сек
Каналы                                   : 2 канала
Частота                                  : 44,1 КГц
Битовая глубина                          : 16 бит
Размер потока                            : 104 Мбайт (10%)
Язык                                     : English (US)

Страна: Россия
Продолжительность: 00:45:35
Перевод: нет

Файл
Кодек: WMV
Качество: CAM
Видео: 720х576 (5:4), 25 fps, Windows Media Video 9, 3 000 Kbps, 0.26 bit/pixel
Звук: 44.1 KHz, Windows Media Audio 9.2, 2 ch, 320 Kbps, Russian




   Похожие торренты   Торрент   Размер 
В этой теме нет новых непрочитанных сообщений. Евгений Грин - Эффективное соблазнение. Соблазнение, пикап (2013) CAMRip

29 | 5

1.5 ГБ

В этой теме нет новых непрочитанных сообщений. Евгений Грин - Идеальные отношения. Соблазнение, пикап (2010) CAMRip

75 | 42

2.37 ГБ

В этой теме нет новых непрочитанных сообщений. Евгений Грин - Персональное соблазнение (2013) MP3

183 | 36

59.33 МБ

В этой теме нет новых непрочитанных сообщений. Евгений Грин - Эффективное соблазнение на сайтах знакомств (2012) WEBRip

153 | 4

1.1 ГБ

В этой теме нет новых непрочитанных сообщений. Евгений Грин - Секс с новой девушкой каждую неделю (2013) MP3

166 | 39

70.57 МБ

В этой теме нет новых непрочитанных сообщений. Евгений Грин - Как выйти в Астрал (2013) CAMRip

157 | 10

2.16 ГБ

В этой теме нет новых непрочитанных сообщений. Евгений Грин - О чем говорить с девушкой (2013) CAMRip

29 | 18

847.93 МБ




Вы не можете начинать темы
Вы не можете отвечать на сообщения
Вы не можете редактировать свои сообщения
Вы не можете удалять свои сообщения
Вы не можете добавлять вложения

Перейти:  
Для Мосгорсуда, Роскомнадзора и рекламодателей: mosgorsud-torrent[собачка]yandex.ru
 Вход
ppkBB3cker v.2 © 2008-2014 @ PPK
[ Time : 0.527s | 15 Queries | GZIP : Off ]

Торрент трекер RUTOR.IN, Не можете зайти на rutor.org? Какой новый адрес рутор? Какое зеркало рутор? Не работает rutor.org и зеркала? Тогда наш торрент специально для вас. Rutor.in неофициальное зеркало rutor. В случае если у Вас заблокирован rutor или вдруг Вы не можете на него зайти, то Вы без труда сможете скачать бесплатно и без рекламы последние новинки кино, игр, сериалов и прочего у нас, на Rutor.in. Не нужно использовать прокси, чтобы зайти на рутор, достаточно воспользоваться нашим ресурсом. Все новые фильмы, игры, сериалы, книги и музыка за 2013 и 2014 годы через торрент бесплатно. Скачивайте фильмы в хорошем качестве, игры для пк, xbox, playstation без регистрации. У нас вы найдете новые Зарубежные сериалы и Русские сериалы 2013, 2014, 2015 годов. Оставайтесь с нами, качайте любимые фильмы, игры, сериалы, книги и музыку.
cron