img image001 image001 image001 image001 image001 image001 image001 image001 image001 image001 image001 image001 image001 image001 image001

Planets Sun Sun Sun
Статистика раздачи
Автор: Снежана | Размер: 847.93 МБ | Добавлен: 18 дек 2013
Раздают: 29    Качают: 18
Скачать торрент
Скачать торрент
Описание торрента

СообщениеДобавлено: 18 дек 2013 

#77

Информация о фильме
Название: Евгений Грин - О чем говорить с девушкой (Соблазнение, пикап)
Год выхода: 2013
Режиссер: Евгений Грин
В ролях: Евгений Грин

О фильме:
Тренинг на самую важную тему в соблазнении - общение. Общение - это основа соблазнения. Вы можете смущаться, плохо выглядеть, обладать слабой невербаликой, делать другие косяки, но общаться вы обязаны уметь на отлично.

Большинство мужчин не знают что и когда сказать девушке. Я вам расскажу все об общении. Данные знания можно применять в любых ситуациях: в отпуске и при общении в городе.

Данный тренинг решает проблемы:
-Если вам девушки говорят "У меня есть парень", а вы чувствуете, что это вранье.
-Если вам попадается девушка с понтами.
-Если тема общения исчерпана, а дальше сказать нечего.
-Если тупите и тормозите при подходе.
-Если девушка при начале общения игнорирует вас.
-Если девушка немногословна и отвечает короткими фразами.
-Если девушки вас сливают.

Данный тренинг отвечает на вопросы:
-О чем говорить с девушкой?
-Как начать разговор с девушкой?
-Как знакомится с девушками?
-Что говорить девушке при знакомстве?
-Что говорить девушке на свидании?
-Темы для разговора с девушкой

Программа тренинга (кратко):
1) Алгоритмы общения в директ и индирект стиле. Случаи применения.
2) Примеры работы с отмазками
3) Создание интереса у девушки к своей персоне
4) Секрет создания состояния для комфортного общения
5) Что нельзя делать при общении. Роковые ошибки.
6) Полезные фишки
7) Суть общения

Код:
Общее
Полное имя                               : G:videoЕвгений Грин - О чем говорить с девушкой.wmv
Формат                                   : Windows Media
Размер файла                             : 848 Мбайт
Продолжительность                        : 35 м.
Режим общего битрейта                    : Постоянный
Общий поток                              : 3336 Кбит/сек
Максимальный общий битрейт               : 3348 Кбит/сек
Дата кодирования                         : UTC 2013-09-01 19:31:44.856

Видео
Идентификатор                            : 2
Формат                                   : VC-1
Профиль формата                          : MP@ML
Идентификатор кодека                     : WMV3
Идентификатор кодека/Информация          : Windows Media Video 9
Идентификатор кодека/Подсказка           : WMV3
Описание кодека                          : Windows Media Video 9 - Professional
Продолжительность                        : 35 м.
Вид битрейта                             : Постоянный
Битрейт                                  : 3000 Кбит/сек
Ширина                                   : 720 пикселей
Высота                                   : 576 пикселей
Соотношение сторон                       : 5:4
Частота кадров                           : 25,000 кадров/сек
Стандарт вещания                         : PAL
Битовая глубина                          : 8 бит
Тип развёртки                            : Прогрессивная
Метод сжатия                             : С потерями
Бит/(Пиксели*Кадры)                      : 0.289
Размер потока                            : 762 Мбайт (90%)
Язык                                     : English (US)

Аудио
Идентификатор                            : 1
Формат                                   : WMA
Версия формата                           : Version 2
Идентификатор кодека                     : 161
Идентификатор кодека/Информация          : Windows Media Audio
Описание кодека                          : Windows Media Audio 9.2 - 320 kbps, 44 kHz, stereo (A/V) 1-pass CBR
Продолжительность                        : 35 м.
Вид битрейта                             : Постоянный
Битрейт                                  : 320 Кбит/сек
Каналы                                   : 2 канала
Частота                                  : 44,1 КГц
Битовая глубина                          : 16 бит
Размер потока                            : 81,3 Мбайт (10%)
Язык                                     : English (US)

Страна: Россия
Продолжительность: 00:35:31
Перевод: нет

Файл
Кодек: WMV
Качество: CAM
Видео: 720х576 (5:4), 25 fps, Windows Media Video 9, 3 000 Kbps, 0.26 bit/pixel
Звук: 44.1 KHz, Windows Media Audio 9.2, 2 ch, 320 Kbps, Russian




   Похожие торренты   Торрент   Размер 
В этой теме нет новых непрочитанных сообщений. Евгений Грин - Секс с новой девушкой каждую неделю (2013) MP3

166 | 39

70.57 МБ

В этой теме нет новых непрочитанных сообщений. Евгений Грин - Как выйти в Астрал (2013) CAMRip

157 | 10

2.16 ГБ

В этой теме нет новых непрочитанных сообщений. Евгений Грин - Как создать рекламу (2013) CAMRip

154 | 11

1.96 ГБ

В этой теме нет новых непрочитанных сообщений. Евгений Грин - Как найти клиентов (2013) CAMRip

50 | 43

2.2 ГБ

В этой теме нет новых непрочитанных сообщений. Евгений Грин - Будь здоров (2013) CAMRip

204 | 15

2.57 ГБ

В этой теме нет новых непрочитанных сообщений. Евгений Грин - Тесты на экстрасенсорные способности (2013) CAMRip

247 | 15

2.4 ГБ

В этой теме нет новых непрочитанных сообщений. Евгений Грин - Как начать бизнес с нуля (2013) CAMRip

54 | 37

2.69 ГБ




Вы не можете начинать темы
Вы не можете отвечать на сообщения
Вы не можете редактировать свои сообщения
Вы не можете удалять свои сообщения
Вы не можете добавлять вложения

Перейти:  
Для Мосгорсуда, Роскомнадзора и рекламодателей: mosgorsud-torrent[собачка]yandex.ru
 Вход
ppkBB3cker v.2 © 2008-2014 @ PPK
[ Time : 0.051s | 15 Queries | GZIP : Off ]

Торрент трекер RUTOR.IN, Не можете зайти на rutor.org? Какой новый адрес рутор? Какое зеркало рутор? Не работает rutor.org и зеркала? Тогда наш торрент специально для вас. Rutor.in неофициальное зеркало rutor. В случае если у Вас заблокирован rutor или вдруг Вы не можете на него зайти, то Вы без труда сможете скачать бесплатно и без рекламы последние новинки кино, игр, сериалов и прочего у нас, на Rutor.in. Не нужно использовать прокси, чтобы зайти на рутор, достаточно воспользоваться нашим ресурсом. Все новые фильмы, игры, сериалы, книги и музыка за 2013 и 2014 годы через торрент бесплатно. Скачивайте фильмы в хорошем качестве, игры для пк, xbox, playstation без регистрации. У нас вы найдете новые Зарубежные сериалы и Русские сериалы 2013, 2014, 2015 годов. Оставайтесь с нами, качайте любимые фильмы, игры, сериалы, книги и музыку.
cron