img image001 image001 image001 image001 image001 image001 image001 image001 image001 image001 image001 image001 image001 image001 image001

Planets Sun Sun Sun
Статистика раздачи
Автор: Снежана | Размер: 390.2 МБ | Добавлен: 18 дек 2013
Раздают: 83    Качают: 2
Скачать торрент
Скачать торрент
Описание торрента

СообщениеДобавлено: 18 дек 2013 

#77

Информация о фильме
Автор (режиссер): Роман Урсу
Название: Что и как покупать на Taobao (бизнес идея) Покупка товаров из Китая
Год выпуска: 2013
Жанр: Бизнес
Продолжительность: 00:43:30
Качество видео: DVDRip
Видеокодек: avc1
Битрейт видео: ~1 095 Kbps, 25.000 fps
Размер кадра: 1280х720
Аудиокодек: MP3
Битрейт аудио: 192 Kbps, 2 channels, 44.1 KHz
Другие мои раздачи можно посмотреть здесь:
http://www.rutor.org/b.php?uploaded_by=963069
Описание:
Taobao.com - это самый большой китайский интернет-магазин, ориентированный на конечного потребителя. В данном случае сайт Taobao.com выступает в роли посредника между покупателем и продавцом. На этом сайте сосредоточены миллионы разновидностей все различных товаров...
Как известно большинство продаваемых у нас на рынках товаров из Китая, но цены на них совсем не китайские.
Для примера рюкзак продаваемый у нас за 25 долларов в Китае имеет цену всего приблизительно 5 долларов + доставка 9 долларов и того он нам обойдется всего в 14 долларов, т.е. на одном только рюкзаке мы экономим уже 11 долларов, а что говорить за товары которые имеют очень малый вес и почти не требуют денег за доставку...
General
Формат : MPEG-4
Профиль формата : Base Media / Version 2
Идентификатор кодека : mp42
Размер файла : 155 MiB
Продолжительность : 16mn 49s
Режим общего битрейта : Variable
Общий поток : 1 290 Kbps
Дата кодирования : UTC 2013-04-14 19:54:57
Дата пометки : UTC 2013-04-14 19:54:57
gsst : 0
gstd : 1009416
gssd : BB9026C45HH1380633667863614
gshh : r2---sn-bpb5oxu-3c2l.c.youtube.com

Video
Идентификатор : 1
Формат : AVC
Формат/Информация : Advanced Video Codec
Профиль формата : High@L3.1
Параметр CABAC формата : Yes
Параметр ReFrames формата : 1 frame
Параметр GOP формата : M=1, N=60
Идентификатор кодека : avc1
Идентификатор кодека/Информация : Advanced Video Coding
Продолжительность : 16mn 49s
Битрейт : 1 095 Kbps
Максимальный битрейт : 3 035 Kbps
Ширина : 1 280 pixels
Высота : 720 pixels
Соотношение сторон : 16:9
Режим частоты кадров : Constant
Частота кадров : 25.000 fps
Цветовое пространство : YUV
Субдискретизация насыщенности : 4:2:0
Битовая глубина : 8 bits
Тип развёртки : Progressive
Бит/(Пиксели*Кадры) : 0.048
Размер потока : 132 MiB (85%)
Дата пометки : UTC 2013-04-14 19:56:16

Audio
Идентификатор : 2
Формат : AAC
Формат/Информация : Advanced Audio Codec
Профиль формата : LC
Идентификатор кодека : 40
Продолжительность : 16mn 49s
Вид битрейта : Variable
Битрейт : 192 Kbps
Максимальный битрейт : 203 Kbps
Каналы : 2 channels
Расположение каналов : Front: L R
Частота : 44.1 KHz
Метод сжатия : Lossy
Размер потока : 23.1 MiB (15%)
Заголовок : IsoMedia File Produced by Google, 5-11-2011
Дата кодирования : UTC 2013-04-14 19:55:42
Дата пометки : UTC 2013-04-14 19:56:16





   Похожие торренты   Торрент   Размер 
В этой теме нет новых непрочитанных сообщений. Формула 1. Сезон 2013. Этап 03. Гран-при Китая. Полный уик-энд Гран-при Китая [Спорт 1 HD] (2013) HDTVRip 720p | 50fps

4 | 8

12.52 ГБ

В этой теме нет новых непрочитанных сообщений. Формула 1. Сезон 2013. Этап 03. Гран-при Китая. Полный уик-энд Гран-при Китая [Спорт 1 HD] (2013) HDTV 1080i

1 | 3

44.5 ГБ

В этой теме нет новых непрочитанных сообщений. Формула 1. Сезон 2013. Этап 03. Гран-при Китая. Полный уик-энд Гран-при Китая [Спорт 1 HD] (2013) HDTVRip

1 | 4

9.49 ГБ

В этой теме нет новых непрочитанных сообщений. Комнатные растения. Покупка, посадка и уход (2005) DVDRip

98 | 10

700.2 МБ

В этой теме нет новых непрочитанных сообщений. Евгений Грин - Бизнес идеи для начинающих (Работающие бизнес идеи) (2013) CAMRip

240 | 46

2.59 ГБ

В этой теме нет новых непрочитанных сообщений. Есть идея [01-02 из 2] (2003) DVDRip

6 | 5

1.37 ГБ

В этой теме нет новых непрочитанных сообщений. Маркетинг товаров и услуг. Обучающий видеокурс (2011) PC

74 | 9

144.1 МБ




Вы не можете начинать темы
Вы не можете отвечать на сообщения
Вы не можете редактировать свои сообщения
Вы не можете удалять свои сообщения
Вы не можете добавлять вложения

Перейти:  
Для Мосгорсуда, Роскомнадзора и рекламодателей: mosgorsud-torrent[собачка]yandex.ru
 Вход
ppkBB3cker v.2 © 2008-2014 @ PPK
[ Time : 0.043s | 15 Queries | GZIP : Off ]

cron