img image001 image001 image001 image001 image001 image001 image001 image001 image001 image001 image001 image001 image001 image001 image001

Planets Sun Sun Sun
Статистика раздачи
Автор: Снежана | Размер: 1.22 ГБ | Добавлен: 18 дек 2013
Раздают: 17    Качают: 5
Скачать торрент
Скачать торрент
Описание торрента

СообщениеДобавлено: 18 дек 2013 

#77

Информация о фильме
Оригинальное название: Соколов Григорий - 25 способов добыть огонь в экстремальных условиях (2013) DVDRip

Год выпуска: 2013
Страна: Россия
Жанр: Обучение
Продолжительность: 04:29:08

Режиссер: Соколов Григорий

Другие мои раздачи можно посмотреть здесь:
http://www.rutor.org/b.php?uploaded_by=963069

Разница с этой раздачей:
http://www.rutor.org/torrent/310249/sokolov-grigorij-25-sposobov-dobyt-ogon-v-jekstremalnyh-uslovijah-2013-dvdripp
заключается в формате. Та раздача в МР4, а эта на которой вы находитесь в формате AVI.

Описание: 25 способов добыть огонь в экстремальных условиях когда нету под рукой привычной зажигалки.

Добывание огня в сыром лесу
Огнь ложкой от солнца
огонь от израсходованной кремневой зажигалки
Огонь лампочкой, от солнца
Огонь газовым баллоном от солнца
огонь из марганцовки трением.
Огонь катанием ваты с мелом
Огонь катанием ваты. Классика.
Огонь презервативом от солнца
Огонь льдом от солнца
огонь от батарейки
Огонь от короткого замыкания
огонь от напильника, кремня и угля
огонь от проволоки метод трения
Огонь от солнца при помощи донышек бутылок
Огонь от электрического сопротивления.
Огонь от электрической дуги.
Огонь отражателем фонарика от солнца
огонь трением сверлением при помощи лука
Огонь языческим способом. Огненные ворота.
Огонь, катанием ваты с золой
получение огня от тесака, кремня и жжоной тряпки
простое изготовление огнива.
Разведение огня с помощью бензопилы
набор для разведения огня высеканием искр

А ТАК ЖЕ ДРУГИЕ ИНТЕРЕСНЫЕ И ПОЛЕЗНЫЕ РОЛИКИ:
Как открыть консервы голыми руками
Вскрывание плоской консервной банки голыми руками
4 клеща
Заготовка дров без топора и пилы
Немного о кремне
О четырёх кострах по принципу 'финской свечи'
утилизация стекла в походных условиях

качество: DVDRip
формат: AVI
Видео: MPEG-4 Visual at 509 Kbps 480 x 360 (1.333) at 24.000 fps
Аудио: MPEG Audio at 128 Kbps 2 channels, 44.1 KHz
Добывание огня в сыром лесу
Огнь ложкой от солнца
огонь от израсходованной кремневой зажигалки
Огонь лампочкой, от солнца
Огонь газовым баллоном от солнца
огонь из марганцовки трением.
Огонь катанием ваты с мелом
Огонь катанием ваты. Классика.
Огонь презервативом от солнца
Огонь льдом от солнца
огонь от батарейки
Огонь от короткого замыкания
огонь от напильника, кремня и угля
огонь от проволоки метод трения
Огонь от солнца при помощи донышек бутылок
Огонь от электрического сопротивления.
Огонь от электрической дуги.
Огонь отражателем фонарика от солнца
огонь трением сверлением при помощи лука
Огонь языческим способом. Огненные ворота.
Огонь, катанием ваты с золой
получение огня от тесака, кремня и жжоной тряпки
простое изготовление огнива.
Разведение огня с помощью бензопилы
набор для разведения огня высеканием искр

А ТАК ЖЕ ДРУГИЕ ИНТЕРЕСНЫЕ И ПОЛЕЗНЫЕ РОЛИКИ:
Как открыть консервы голыми руками
Вскрывание плоской консервной банки голыми руками
4 клеща
Заготовка дров без топора и пилы
Немного о кремне
О четырёх кострах по принципу 'финской свечи'
утилизация стекла в походных условиях


General
Формат : AVI
Формат/Информация : Audio Video Interleave
Размер файла : 36.6 MiB
Продолжительность : 7mn 52s
Общий поток : 649 Kbps
Программа кодирования : MEncoder SVN-r33883(20110719-gcc4.5.2)
Библиотека кодирования : MPlayer

Video
Идентификатор : 0
Формат : MPEG-4 Visual
Профиль формата : Advanced Simple@L5
Параметр BVOP формата : 2
Параметр QPel формата : No
Параметр GMC формата : No warppoints
Параметр матрицы формата : Default (H.263)
Идентификатор кодека : XVID
Идентификатор кодека/Подсказка : XviD
Продолжительность : 7mn 52s
Битрейт : 509 Kbps
Ширина : 480 pixels
Высота : 360 pixels
Соотношение сторон : 4:3
Частота кадров : 24.000 fps
Цветовое пространство : YUV
Субдискретизация насыщенности : 4:2:0
Битовая глубина : 8 bits
Тип развёртки : Progressive
Метод сжатия : Lossy
Бит/(Пиксели*Кадры) : 0.123
Размер потока : 28.7 MiB (78%)
Библиотека кодирования : XviD 1.2.1 (UTC 2008-12-04)

Audio
Идентификатор : 1
Формат : MPEG Audio
Версия формата : Version 1
Профиль формата : Layer 3
Режим : Joint stereo
Расширение режима : MS Stereo
Идентификатор кодека : 55
Идентификатор кодека/Подсказка : MP3
Продолжительность : 7mn 52s
Вид битрейта : Constant
Битрейт : 128 Kbps
Каналы : 2 channels
Частота : 44.1 KHz
Метод сжатия : Lossy
Задержка видео : 42ms
Размер потока : 7.21 MiB (20%)
Выравнивание : Aligned on interleaves
Продолжительность промежутка : 26 ms (0.63 video frame)
Время предзагрузки промежутка : 522 ms
Библиотека кодирования : LAME3.98.4





   Похожие торренты   Торрент   Размер 
В этой теме нет новых непрочитанных сообщений. Соколов Григорий - 25 способов добыть огонь в экстремальных условиях (2013) DVDRip

124 | 8

1.53 ГБ

В этой теме нет новых непрочитанных сообщений. Миллион способов потерять голову / Миллион способов умереть на Диком Западе / A Million Ways to Die in the West (2014) BDRip от ivandubskoj | A | Расширенная версия

718 | 76

2.18 ГБ

В этой теме нет новых непрочитанных сообщений. Юрий Соколов - Ретроскоп (2012-2013) MP3

25 | 3

727.21 МБ

В этой теме нет новых непрочитанных сообщений. Юрий Соколов - Удаленный контакт (2012) (2013) МР3

2 | 2

83.45 МБ

В этой теме нет новых непрочитанных сообщений. Арина Мишина - Вино в домашних условиях (2013) PDF

821 | 45

23.46 МБ

В этой теме нет новых непрочитанных сообщений. Битва за огонь / Война за огонь / La guerre du feu (1981) BDRip 720p

12 | 2

5.57 ГБ

В этой теме нет новых непрочитанных сообщений. Битва за огонь / Война за огонь / La guerre du feu (1981) BDRip 1080p

103 | 14

9.28 ГБ




Вы не можете начинать темы
Вы не можете отвечать на сообщения
Вы не можете редактировать свои сообщения
Вы не можете удалять свои сообщения
Вы не можете добавлять вложения

Перейти:  
Для Мосгорсуда, Роскомнадзора и рекламодателей: mosgorsud-torrent[собачка]yandex.ru
 Вход
ppkBB3cker v.2 © 2008-2014 @ PPK
[ Time : 0.027s | 17 Queries | GZIP : Off ]

Торрент трекер RUTOR.IN, Не можете зайти на rutor.org? Какой новый адрес рутор? Какое зеркало рутор? Не работает rutor.org и зеркала? Тогда наш торрент специально для вас. Rutor.in неофициальное зеркало rutor. В случае если у Вас заблокирован rutor или вдруг Вы не можете на него зайти, то Вы без труда сможете скачать бесплатно и без рекламы последние новинки кино, игр, сериалов и прочего у нас, на Rutor.in. Не нужно использовать прокси, чтобы зайти на рутор, достаточно воспользоваться нашим ресурсом. Все новые фильмы, игры, сериалы, книги и музыка за 2013 и 2014 годы через торрент бесплатно. Скачивайте фильмы в хорошем качестве, игры для пк, xbox, playstation без регистрации. У нас вы найдете новые Зарубежные сериалы и Русские сериалы 2013, 2014, 2015 годов. Оставайтесь с нами, качайте любимые фильмы, игры, сериалы, книги и музыку.