img image001 image001 image001 image001 image001 image001 image001 image001 image001 image001 image001 image001 image001 image001 image001

Planets Sun Sun Sun
Статистика раздачи
Автор: Снежана | Размер: 652.72 МБ | Добавлен: 18 дек 2013
Раздают: 0    Качают: 2
Скачать торрент
Скачать торрент
Описание торрента

СообщениеДобавлено: 18 дек 2013 

#77

Информация о фильме

Автор (режиссер): Сергей Рязанцев и Дмитрий Мягков
Название: Территориальные громады. Основы прямого народовластия в Украине
Год выпуска: 2013
Жанр: Лекция
Продолжительность: 04:15:51
Язык: Русский
Качество видео: DVDRip
Видеокодек: AVC
Битрейт видео: ~1 112 Kbps, 25.000 fps
Размер кадра: 450х360
Аудиокодек: AAC
Битрейт аудио: 96.0 Kbps, 2 channels, 44.1 KHz

Другие мои раздачи можно посмотреть здесь:
http://www.rutor.org/b.php?uploaded_by=963069

Описание:
Видео про Территориальные громады и Прямое народовластие. Как это сделать и зачем это нужно.

General
Полное имя : Территориальные громады. Основы прямого народовластия в Украине..mp4
Формат : MPEG-4
Профиль формата : Base Media / Version 2
Идентификатор кодека : mp42
Размер файла : 653 MiB
Продолжительность : 4h 15mn
Режим общего битрейта : Variable
Общий поток : 357 Kbps
Дата кодирования : UTC 2013-01-17 09:06:45
Дата пометки : UTC 2013-01-17 09:06:45
gsst : 0
gstd : 15351756
gssd : B4A7DDA67MH1381136059417140
gshh : r7---sn-4g57kuez.c.youtube.com

Video
Идентификатор : 1
Формат : AVC
Формат/Информация : Advanced Video Codec
Профиль формата : Baseline@L2.1
Параметр CABAC формата : No
Параметр ReFrames формата : 1 frame
Параметр GOP формата : M=1, N=60
Идентификатор кодека : avc1
Идентификатор кодека/Информация : Advanced Video Coding
Продолжительность : 4h 15mn
Битрейт : 258 Kbps
Максимальный битрейт : 1 112 Kbps
Ширина : 450 pixels
Высота : 360 pixels
Соотношение сторон : 5:4
Режим частоты кадров : Constant
Частота кадров : 25.000 fps
Цветовое пространство : YUV
Субдискретизация насыщенности : 4:2:0
Битовая глубина : 8 bits
Тип развёртки : Progressive
Бит/(Пиксели*Кадры) : 0.064
Размер потока : 473 MiB (72%)
Дата пометки : UTC 2013-01-17 09:07:30

Audio
Идентификатор : 2
Формат : AAC
Формат/Информация : Advanced Audio Codec
Профиль формата : LC
Идентификатор кодека : 40
Продолжительность : 4h 15mn
Вид битрейта : Variable
Битрейт : 96.0 Kbps
Максимальный битрейт : 104 Kbps
Каналы : 2 channels
Расположение каналов : Front: L R
Частота : 44.1 KHz
Метод сжатия : Lossy
Размер потока : 176 MiB (27%)
Заголовок : IsoMedia File Produced by Google, 5-11-2011
Дата кодирования : UTC 2013-01-17 09:06:55
Дата пометки : UTC 2013-01-17 09:07:30





   Похожие торренты   Торрент   Размер 
В этой теме нет новых непрочитанных сообщений. Сергей Рязанцев - Территориальные громады - прямая дорога к Народовластию и Копному праву в Украине (2013) DVDRip

1 | 2

1.06 ГБ

В этой теме нет новых непрочитанных сообщений. Дмитрий Самойлов - Основы личной безопасности (2012) FB2, RTF, PDF, HTML, EPUB

0 | 0

29.56 МБ

В этой теме нет новых непрочитанных сообщений. Сергей Серебряков (Кишора Кишори дас) - Основы аюрведы MP3

6 | 3

593.21 МБ

В этой теме нет новых непрочитанных сообщений. Сергей Антонов, Дмитрий Глуховский - Мир метро 2033 (2010-2011) MP3

27 | 7

1.06 ГБ

В этой теме нет новых непрочитанных сообщений. Лоббисты Ювенальной (Криминальной) Юстиции в Украине (2013) DVDRip

1 | 2

134.94 МБ

В этой теме нет новых непрочитанных сообщений. Свобода № 5492-IV. Создание электронного концлагеря в Украине (2013) DVDRip

26 | 5

146.07 МБ

В этой теме нет новых непрочитанных сообщений. Агрессивная среда (1-25 выпуски) (Дмитрий Васильев, Сергей Паньков, Павел Кроник) [2014-2016, документальный, SATRip]

2 | 2

15.8 ГБ




Вы не можете начинать темы
Вы не можете отвечать на сообщения
Вы не можете редактировать свои сообщения
Вы не можете удалять свои сообщения
Вы не можете добавлять вложения

Перейти:  
Для Мосгорсуда, Роскомнадзора и рекламодателей: mosgorsud-torrent[собачка]yandex.ru
 Вход
ppkBB3cker v.2 © 2008-2014 @ PPK
[ Time : 0.046s | 15 Queries | GZIP : Off ]

Торрент трекер RUTOR.IN, Не можете зайти на rutor.org? Какой новый адрес рутор? Какое зеркало рутор? Не работает rutor.org и зеркала? Тогда наш торрент специально для вас. Rutor.in неофициальное зеркало rutor. В случае если у Вас заблокирован rutor или вдруг Вы не можете на него зайти, то Вы без труда сможете скачать бесплатно и без рекламы последние новинки кино, игр, сериалов и прочего у нас, на Rutor.in. Не нужно использовать прокси, чтобы зайти на рутор, достаточно воспользоваться нашим ресурсом. Все новые фильмы, игры, сериалы, книги и музыка за 2013 и 2014 годы через торрент бесплатно. Скачивайте фильмы в хорошем качестве, игры для пк, xbox, playstation без регистрации. У нас вы найдете новые Зарубежные сериалы и Русские сериалы 2013, 2014, 2015 годов. Оставайтесь с нами, качайте любимые фильмы, игры, сериалы, книги и музыку.
cron