img image001 image001 image001 image001 image001 image001 image001 image001 image001 image001 image001 image001 image001 image001 image001

Planets Sun Sun Sun
Статистика раздачи
Автор: Снежана | Размер: 300.94 МБ | Добавлен: 18 дек 2013
Раздают: 45    Качают: 5
Скачать торрент
Скачать торрент
Описание торрента

СообщениеДобавлено: 18 дек 2013 

Учебные фильмы по предмету обж / Бжд для вузов тема взрывы



Страна: СССР
Тематика: Учебный Фильм для Вузов
Тип раздаваемого материала: Видеоурок
Продолжительность: ~ 00:02:49 * 7
Год выпуска: 1959

Язык: Русский
Перевод: Не требуется

Описание: Данная подборка мини фильмов рассказывает про различные виды оружия и когда оно было применено.
Материал прекрастно подходит для занятий по предмету ОБЖ или БЖД и других подобных предметов кому надо забирайте =)

Качество: VHSRip
Формат: AVI
Видео кодек: XviD
Аудио кодек: PCM
Видео: 320x240 (1.33:1), 15 fps, Cinepak by Radius YUV 4:2:2 ~1593 kbps avg, 1.38 bit/pixel
Аудио: 22.050 kHz, Microsoft PCM, 1 ch, ~176.40 kbps avg
Код:
Общее
Полное имя                               : D:Рипы выкладка [Deadmauvlad]Учебные фильмы по предмету обж_ Бжд для вузов тема взрывы.Deadmauvlad6.11.55.avi
Формат                                   : AVI
Формат/Информация                        : Audio Video Interleave
Настройки формата                        : rec
Размер файла                             : 35,9 Мбайт
Продолжительность                        : 2 м. 49 с.
Общий поток                              : 1774 Кбит/сек
Примечание                               : Compressed with Adobe Premiere 4.0 / Settings: Interleave = 1 /  Requested Data Rate = 220(CDROM) /  Recompress = Threshold: 5% /  Keyframes: every 30 frames /  Still Optimize ON /  /  Fields = Full Frame /

Видео
Идентификатор                            : 0
Формат                                   : Cinepack
Идентификатор кодека                     : cvid
Продолжительность                        : 2 м. 49 с.
Битрейт                                  : 1563 Кбит/сек
Ширина                                   : 320 пикселей
Высота                                   : 240 пикселей
Соотношение сторон                       : 4:3
Частота кадров                           : 15,000 кадров/сек
Бит/(Пиксели*Кадры)                      : 1.357
Размер потока                            : 31,6 Мбайт (88%)

Аудио
Идентификатор                            : 1
Формат                                   : PCM
Параметр Sign формата                    : Unsigned
Идентификатор кодека                     : 1
Продолжительность                        : 2 м. 49 с.
Вид битрейта                             : Постоянный
Битрейт                                  : 176,4 Кбит/сек
Каналы                                   : 1 канал
Частота                                  : 22,05 КГц
Битовая глубина                          : 8 бит
Размер потока                            : 3,57 Мбайт (10%)
Продолжительность промежутка             : 67  мс. (1,00 видеокадр)
Время предзагрузки промежутка            : 732  мс.

[align=center]

[/align]

Релиз Автор оцифровки Deadmauvlad / TooaPse



   Похожие торренты   Торрент   Размер 
В этой теме нет новых непрочитанных сообщений. Учебные фильмы о рыбалке от братьев Щербаковых [01-68] (2002-2010) DVDRip

223 | 213

48.87 ГБ

В этой теме нет новых непрочитанных сообщений. Учебные фильмы о рыбалке от братьев Щербаковых [01-68 выпуски из 68] (2002-2010) 68хDVD5

3 | 49

232.15 ГБ

В этой теме нет новых непрочитанных сообщений. Миньоны: Мини-фильмы / Minions: Mini-Movie - The Competition [01-03 из 03] (2015) BDRip 1080p от Deadmauvlad | D

678 | 17

1.19 ГБ

В этой теме нет новых непрочитанных сообщений. Тигровая бухта / Tiger Bay (1959) WEB-DLRip от Deadmauvlad | D

63 | 37

748.83 МБ

В этой теме нет новых непрочитанных сообщений. Тигровая бухта / Tiger Bay (1959) WEB-DLRip от Deadmauvlad | D

38 | 7

1.47 ГБ

В этой теме нет новых непрочитанных сообщений. Незваные гости (1959) VHSRip

35 | 5

1.37 ГБ

В этой теме нет новых непрочитанных сообщений. Под черной маской / Szegeny gazdagok (1959) VHSRip

2 | 5

699.76 МБ




Вы не можете начинать темы
Вы не можете отвечать на сообщения
Вы не можете редактировать свои сообщения
Вы не можете удалять свои сообщения
Вы не можете добавлять вложения

Перейти:  
Для Мосгорсуда, Роскомнадзора и рекламодателей: mosgorsud-torrent[собачка]yandex.ru
 Вход
ppkBB3cker v.2 © 2008-2014 @ PPK
[ Time : 0.040s | 14 Queries | GZIP : Off ]

Торрент трекер RUTOR.IN, Не можете зайти на rutor.org? Какой новый адрес рутор? Какое зеркало рутор? Не работает rutor.org и зеркала? Тогда наш торрент специально для вас. Rutor.in неофициальное зеркало rutor. В случае если у Вас заблокирован rutor или вдруг Вы не можете на него зайти, то Вы без труда сможете скачать бесплатно и без рекламы последние новинки кино, игр, сериалов и прочего у нас, на Rutor.in. Не нужно использовать прокси, чтобы зайти на рутор, достаточно воспользоваться нашим ресурсом. Все новые фильмы, игры, сериалы, книги и музыка за 2013 и 2014 годы через торрент бесплатно. Скачивайте фильмы в хорошем качестве, игры для пк, xbox, playstation без регистрации. У нас вы найдете новые Зарубежные сериалы и Русские сериалы 2013, 2014, 2015 годов. Оставайтесь с нами, качайте любимые фильмы, игры, сериалы, книги и музыку.