img image001 image001 image001 image001 image001 image001 image001 image001 image001 image001 image001 image001 image001 image001 image001

Planets Sun Sun Sun
Статистика раздачи
Автор: Снежана | Размер: 818.97 МБ | Добавлен: 19 дек 2013
Раздают: 14    Качают: 4
Скачать торрент
Скачать торрент
Описание торрента

СообщениеДобавлено: 19 дек 2013 

#77

Информация о фильме

Год выхода: 2013
Жанр: Релакс, Видовой, Любительское видео.
Оператор: waPBX
В ролях: добрые жители Санкт - Петербурга.

Страна: Россия
Продолжительность:
16. 00:04:39, 17. 00:13:21, 18. 00:04:35, 19. 00:06:40.
Перевод: оригинал

Файл
Контейнер: AVI
Кодек: H.264/AVC
Качество: 720p
Видео: битрейт : Переменный 2711 Кбит/сек , 1280x720, 25,0 кадр/сек.
Звук: Формат : MP3 , битрейт : Постоянный, 320 Кбит/сек, 2 канала, Частота : 48,0 КГц


О фильме:
Видео для релаксации, немного визуальной информации..

В этой раздаче 4 выпуска:

16. Ботанический сад, немного Большая Невка

17. снято скульптурная композиция в Александровском саду, группа «Зодчие» (Растрелли,Росси,Трезини,Тома де Томон,Монферран,Баженов,Захаров,Воронихи­н). Скульптор Александр Таратынов. Петербург в миниатюре. Немного Ботанический сад и ангел, в Измайловском саду. Храм Успения Пресвятой Богородицы и Смоленская церковь

18. Екатерингофский парк, основан в 1711 году, ограниченном рекой Екатерингофкой, Бумажным каналом и рекой Таракановкой. Там же, дети учатся кататься на лошадях.
Невская губа. Ведется стройка ЗСД, видно на горизонте. Левее, не видно, о-в Белый и Канонерка. Идет гряда островов к Кронштадту, остатки Северной дамбы и дамбы Морского канала, почти размыты. Галерный ковш... Не буду расписывать, Галерная гавань выкопана в 1722 году по приказу Петра. Работы вел Трезини Доменико, продолжил Коробов. Кроншпицы также построены сначала в дереве, перестроены Башмаковым в 1764 году. Еще толком не отреставрированы, снято в др. видео. Снял также старую пологую набережную - слип, остаток её метров 10 осталось. По слухам... здесь работал - Сикорский. Скорее всего, это просто слухи. Возможно, речь идет о первом гидросамолете. Когда Сикорский работал гл.конструктором на Балтийском заводе, 1912-13 гг. Прекрасное было место, для спуска на воду.

19. Поручик бомбардирской роты Василий Корчмин, на 6 линии.
Елагин остров, стройка стадиона, отъевшаеся не пуганая белочка... темновато. Город такой, 9 месяцев в году зима и осень, темень. Небо зашторено тучами.
...о названиии, Васильевский остров, с точки зрения топонимики, не прояснено до конца. До сих пор бытует легенда, что назван он так по имени поручика бомбардирской роты Василия Корчмина, недавно поставлен памятник на 7-й линиии. После закладки Петропавловки он командовал батареей на Стрелке острова, доставшегося русским под финским именем Гирвисаари, что значит Лосиный. Посылая Корчмину деловые депеши, Петр адресовал их кратко: «Василию, на остров». Отсюда, дескать, и Васильевский. Но это — лишь миф.
Васильевским остров назывался еще в XV веке. Среди новгородских посадников, владевших им, известны три Василия — Василий Казимир, Василий Селезень, по прозвищу Губа, и Василий Ананьин. Большинство исследователей до недавнего времени сходились на том, что остров был назван по имени казненного Иваном III в 1471 году Василия Селезня. Но так ли это на самом деле — доподлинно не известно. Тем более, что в своей книге «Предыстория Санкт-Петербурга» историк и литератор Александр Шарымов приводит данные в пользу еще одного — в данном случае, неизвестного, — Василия, давшего острову свое имя. Шарымов ссылается на письмо, датированное 1421 годом, где говорится о некоем Саве, торговце солью с Васильева острова. Значит, получается теперь, что название острова имело отношение к какому-то Василию еще за полвека до казни Василия Селезня.
Общее
Полное имя : Петербургские зарисовки 18.avi
Формат : AVI
Формат/Информация : Audio Video Interleave
Размер файла : 99,8 Мбайт
Продолжительность : 4 м. 35 с.
Общий поток : 3041 Кбит/сек

Видео
Идентификатор : 0
Формат : AVC
Формат/Информация : Advanced Video Codec
Профиль формата : High@L4.1
Параметр CABAC формата : Да
Параметр ReFrames формата : 9 кадров
Идентификатор кодека : H264
Продолжительность : 4 м. 35 с.
Битрейт : 2711 Кбит/сек
Ширина : 1280 пикселей
Высота : 720 пикселей
Соотношение сторон : 16:9
Частота кадров : 25,000 кадров/сек
Цветовое пространство : YUV
Субдискретизация насыщенности : 4:2:0
Битовая глубина : 8 бит
Тип развёртки : Прогрессивная
Бит/(Пиксели*Кадры) : 0.118
Размер потока : 89,0 Мбайт (89%)
Библиотека кодирования : x264 core 130 r2274bm c832fe9
Настройки программы : cabac=1 / ref=9 / deblock=0:0:0 / analyse=0x3:0x133 / me=tesa / subme=11 / psy=1 / psy_rd=1.00:0.00 / mixed_ref=1 / me_range=24 / chroma_me=1 / trellis=2 / 8x8dct=1 / cqm=0 / deadzone=21,11 / fast_pskip=0 / chroma_qp_offset=-2 / threads=4 / lookahead_threads=4 / sliced_threads=1 / slices=4 / nr=0 / decimate=1 / interlaced=0 / bluray_compat=0 / constrained_intra=0 / bframes=0 / weightp=0 / keyint=250 / keyint_min=25 / scenecut=40 / intra_refresh=0 / rc=crf / mbtree=0 / crf=27.1 / qcomp=0.60 / qpmin=0 / qpmax=69 / qpstep=4 / ip_ratio=1.40 / aq=1:1.00

Аудио
Идентификатор : 1
Формат : MPEG Audio
Версия формата : Version 1
Профиль формата : Layer 3
Идентификатор кодека : 55
Идентификатор кодека/Подсказка : MP3
Продолжительность : 4 м. 35 с.
Вид битрейта : Постоянный
Битрейт : 320 Кбит/сек
Каналы : 2 канала
Частота : 48,0 КГц
Метод сжатия : С потерями
Размер потока : 10,5 Мбайт (11%)
Выравнивание : Соединение по промежуткам
Продолжительность промежутка : 40 мс. (1,00 видеокадр)
Библиотека кодирования : LAMELAME_MAJOR_VERSI




   Похожие торренты   Торрент   Размер 
В этой теме нет новых непрочитанных сообщений. Петербургские зарисовки [23] (2014) HDRip 720p

1 | 10

153.45 МБ

В этой теме нет новых непрочитанных сообщений. Петербургские зарисовки [24] (2014) HDRip 720p

4 | 3

504.41 МБ

В этой теме нет новых непрочитанных сообщений. Петербургские зарисовки [25] (2014) HDRip 720p

6 | 2

357.66 МБ

В этой теме нет новых непрочитанных сообщений. Петербургские зарисовки [22] (2014) HDRip 720p

4 | 4

563.14 МБ

В этой теме нет новых непрочитанных сообщений. Петербургские зарисовки. Избранное (2014) HDRip 720p от waPBX

4 | 1

3.92 ГБ

В этой теме нет новых непрочитанных сообщений. Петербургские зарисовки [13] (2012) HD 1080p

0 | 4

855.81 МБ

В этой теме нет новых непрочитанных сообщений. Петербургские зарисовки [03] (2011) HD 1080p

0 | 2

203.78 МБ




Вы не можете начинать темы
Вы не можете отвечать на сообщения
Вы не можете редактировать свои сообщения
Вы не можете удалять свои сообщения
Вы не можете добавлять вложения

Перейти:  
Для Мосгорсуда, Роскомнадзора и рекламодателей: mosgorsud-torrent[собачка]yandex.ru
 Вход
ppkBB3cker v.2 © 2008-2014 @ PPK
[ Time : 0.118s | 14 Queries | GZIP : Off ]

Торрент трекер RUTOR.IN, Не можете зайти на rutor.org? Какой новый адрес рутор? Какое зеркало рутор? Не работает rutor.org и зеркала? Тогда наш торрент специально для вас. Rutor.in неофициальное зеркало rutor. В случае если у Вас заблокирован rutor или вдруг Вы не можете на него зайти, то Вы без труда сможете скачать бесплатно и без рекламы последние новинки кино, игр, сериалов и прочего у нас, на Rutor.in. Не нужно использовать прокси, чтобы зайти на рутор, достаточно воспользоваться нашим ресурсом. Все новые фильмы, игры, сериалы, книги и музыка за 2013 и 2014 годы через торрент бесплатно. Скачивайте фильмы в хорошем качестве, игры для пк, xbox, playstation без регистрации. У нас вы найдете новые Зарубежные сериалы и Русские сериалы 2013, 2014, 2015 годов. Оставайтесь с нами, качайте любимые фильмы, игры, сериалы, книги и музыку.