img image001 image001 image001 image001 image001 image001 image001 image001 image001 image001 image001 image001 image001 image001 image001

Planets Sun Sun Sun
Статистика раздачи
Автор: PriZraK | Размер: 249.27 МБ | Добавлен: 16 фев 2014
Раздают: 138    Качают: 40
Скачать торрент
Скачать торрент
Описание торрента

СообщениеДобавлено: 16 фев 2014 

Информация о фильме
Название: Парк древних камней и Крокодиловая ферма в Паттайе
Год выхода: 2014
Жанр: Развлечение, юмор, шоу
Режиссер: Deadmauvlad
В ролях: Крокодилы , Дрессировщики

О фильме:
Бесстрашные дрессировщики демонстрируют своё мастерство, засовывая им в пасть ноги и руки и даже голову, таскают их за хвосты и носят на руках, целуются с ними. Перед выходом на сцену тайцы-дрессировщики публично молятся, понимая, что повадки и характер этих огромных рептилий не изучены до конца и в период шоу может произойти что угодно. Атмосфера волнения присутствующая на шоу передаётся зрителям, так что свою порцию адреналина получит каждый.
Страна: Тайланд, Паттайя
Студия: Deadmauvlad TV
Продолжительность: 00:08:08
Перевод: Не требуется

Файл
Кодек: AVC
Качество: CAMRip Мой Rip
Видео: 720 x 536 (1.343) at 30.000 fps AVC at 3895 Кбит/сек
Звук: AC-3 at 384 Кбит/сек.2 канала, 44,1 КГц


Код:
Общее
Уникальный идентификатор                 : 202782081934460459791688731987699271115 (0x988E688B7A8D40138918F0765B1F85CB)
Полное имя                               : D:Рипы выкладка [Deadmauvlad]Рипы готовыеkrokodilovaya.ferma.CamRip.Deadmauvlad.mkv
Формат                                   : Matroska
Версия формата                           : Version 4 / Version 2
Размер файла                             : 249 Мбайт
Продолжительность                        : 8 м. 8 с.
Общий поток                              : 4278 Кбит/сек
Дата кодирования                         : UTC 2014-02-13 09:45:55
Программа кодирования                    : mkvmerge v6.5.0 ('Isn't she lovely') built on Oct 20 2013 12:50:05
Библиотека кодирования                   : libebml v1.3.0 + libmatroska v1.4.1

Видео
Идентификатор                            : 1
Формат                                   : AVC
Формат/Информация                        : Advanced Video Codec
Профиль формата                          : High@L4.1
Параметр CABAC формата                   : Да
Параметр ReFrames формата                : 4 кадра
Идентификатор кодека                     : V_MPEG4/ISO/AVC
Продолжительность                        : 8 м. 8 с.
Битрейт                                  : 3895 Кбит/сек
Ширина                                   : 720 пикселей
Высота                                   : 536 пикселей
Соотношение сторон                       : 4:3
Режим частоты кадров                     : Постоянный
Частота кадров                           : 30,000 кадров/сек
Цветовое пространство                    : YUV
Субдискретизация насыщенности            : 4:2:0
Битовая глубина                          : 8 бит
Тип развёртки                            : Прогрессивная
Бит/(Пиксели*Кадры)                      : 0.336
Размер потока                            : 222 Мбайт (89%)
Заголовок                                : Парк древних камней и Крокодиловая ферма в Паттайе.CAMRip.Deadmauvlad
Библиотека кодирования                   : x264 core 130 r2273 b3065e6
Настройки программы                      : cabac=1 / ref=5 / deblock=1:-1:-1 / analyse=0x3:0x113 / me=umh / subme=8 / psy=1 / psy_rd=1.00:0.15 / mixed_ref=1 / me_range=16 / chroma_me=1 / trellis=1 / 8x8dct=1 / cqm=0 / deadzone=21,11 / fast_pskip=1 / chroma_qp_offset=-3 / threads=3 / lookahead_threads=1 / sliced_threads=0 / nr=0 / decimate=1 / interlaced=0 / bluray_compat=1 / constrained_intra=0 / bframes=3 / b_pyramid=1 / b_adapt=2 / b_bias=0 / direct=3 / weightb=1 / open_gop=0 / weightp=1 / keyint=250 / keyint_min=1 / scenecut=40 / intra_refresh=0 / rc_lookahead=50 / rc=2pass / mbtree=1 / bitrate=3895 / ratetol=1.0 / qcomp=0.60 / qpmin=0 / qpmax=69 / qpstep=4 / cplxblur=20.0 / qblur=0.5 / ip_ratio=1.40 / aq=1:1.00
Default                                  : Да
Forced                                   : Нет
Основные цвета                           : BT.709
Характеристики трансфера                 : BT.709
Коэффициенты матрицы                     : BT.709

Аудио
Идентификатор                            : 2
Формат                                   : AC-3
Формат/Информация                        : Audio Coding 3
Расширение режима                        : CM (complete main)
Параметр Endianness формата              : Big
Идентификатор кодека                     : A_AC3
Продолжительность                        : 8 м. 8 с.
Вид битрейта                             : Постоянный
Битрейт                                  : 384 Кбит/сек
Каналы                                   : 2 канала
Расположение каналов                     : Front: L R
Частота                                  : 44,1 КГц
Битовая глубина                          : 16 бит
Метод сжатия                             : С потерями
Размер потока                            : 22,4 Мбайт (9%)
Default                                  : Да
Forced                                   : Нет


Релиз от: Deadmauvlad



   Похожие торренты   Торрент   Размер 
В этой теме нет новых непрочитанных сообщений. Парк древних камней и Крокодиловая ферма в Паттайе (2014) CAMRip от Deadmauvlad

8 | 2

75.52 МБ

В этой теме нет новых непрочитанных сообщений. ТВ Ферма (2014) PC

419 | 24

152.7 МБ

В этой теме нет новых непрочитанных сообщений. ТВ Ферма 2 / TV Farm 2 (2014) PC

404 | 24

175.62 МБ

В этой теме нет новых непрочитанных сообщений. Лонгчен Рабжам (Лонгченпа) - Отрывки из книг: Драгоценная сокровищница Дхармадхату , Великий Гаруда - Крылья совершенства, Корабль из драгоценных камней (2014) MP3

7 | 2

176.74 МБ

В этой теме нет новых непрочитанных сообщений. Саут Парк / Южный Парк / South Park + OST [S01-12] (1997-2008) DVDRip, BDRip

12 | 68

53.73 ГБ

В этой теме нет новых непрочитанных сообщений. Ферма Чарли / Charlie's Farm (2014) HDRip | L1

2718 | 325

1.45 ГБ

В этой теме нет новых непрочитанных сообщений. Энергия камней № 001-115 (2011-2013) PDF

22 | 6

865.05 МБ




Вы не можете начинать темы
Вы не можете отвечать на сообщения
Вы не можете редактировать свои сообщения
Вы не можете удалять свои сообщения
Вы не можете добавлять вложения

Перейти:  
Для Мосгорсуда, Роскомнадзора и рекламодателей: mosgorsud-torrent[собачка]yandex.ru
 Вход
ppkBB3cker v.2 © 2008-2014 @ PPK
[ Time : 0.551s | 15 Queries | GZIP : On ]

Торрент трекер RUTOR.IN, Не можете зайти на rutor.org? Какой новый адрес рутор? Какое зеркало рутор? Не работает rutor.org и зеркала? Тогда наш торрент специально для вас. Rutor.in неофициальное зеркало rutor. В случае если у Вас заблокирован rutor или вдруг Вы не можете на него зайти, то Вы без труда сможете скачать бесплатно и без рекламы последние новинки кино, игр, сериалов и прочего у нас, на Rutor.in. Не нужно использовать прокси, чтобы зайти на рутор, достаточно воспользоваться нашим ресурсом. Все новые фильмы, игры, сериалы, книги и музыка за 2013 и 2014 годы через торрент бесплатно. Скачивайте фильмы в хорошем качестве, игры для пк, xbox, playstation без регистрации. У нас вы найдете новые Зарубежные сериалы и Русские сериалы 2013, 2014, 2015 годов. Оставайтесь с нами, качайте любимые фильмы, игры, сериалы, книги и музыку.