img image001 image001 image001 image001 image001 image001 image001 image001 image001 image001 image001 image001 image001 image001 image001

Planets Sun Sun Sun
Статистика раздачи
Автор: PriZraK | Размер: 4.04 ГБ | Добавлен: 31 дек 2015
Раздают: 163    Качают: 1
Скачать торрент
Скачать торрент
Описание торрента

СообщениеДобавлено: 31 дек 2015 



Городские зарисовки






Оригинальное название: Городские зарисовки
Год Выпуска: 2010 - 2013
Страна: Франция, США, Испания, Греция, Канада, Израиль
Жанр: Любительское видео, релакс
Продолжительность: 03:26:23
Оператор: GlobeTrotterAlpha


Язык комментария: без комментариев (форс.субтитры)

Описание:

Путешествие по разным городам мира! Никаких комментариев и музеев! Все реально и вживую.
Наслаждаемся!

Список: Афины - Греция. Барселона - Испания. Вашингтон - США. Иерусалим - Израиль. Калгари - Канада. Масада - Израиль. Оаху - Гавайи. Оаху, Гонолулу - Гавайи. Париж - Франция. Эдмонтон - Канада.


Качество: HDRip 720p
Формат: MKV
Видео: AVC, 2500 Кбит/сек, 1280x720, 29.970 кадр/сек
Аудио: AAC LC, 157 Кбит/сек, 2 канала, 48 КГц






Общее
Полное имя : Путешествие по городамПариж - Франция.mp4
Формат : MPEG-4
Профиль формата : Base Media / Version 2
Идентификатор кодека : mp42
Размер файла : 969 Мбайт
Продолжительность : 50 м.
Режим общего битрейта : Переменный
Общий поток : 2658 Кбит/сек
Дата кодирования : UTC 2013-09-14 05:15:19
Дата пометки : UTC 2013-09-14 05:15:19

Видео
Идентификатор : 1
Формат : AVC
Формат/Информация : Advanced Video Codec
Профиль формата : High@L3.1
Параметр CABAC формата : Да
Параметр ReFrames формата : 4 кадра
Идентификатор кодека : avc1
Идентификатор кодека/Информация : Advanced Video Coding
Продолжительность : 50 м.
Битрейт : 2500 Кбит/сек
Ширина : 1280 пикселей
Высота : 720 пикселей
Соотношение сторон : 16:9
Режим частоты кадров : Постоянный
Частота кадров : 29,970 кадров/сек
Цветовое пространство : YUV
Субдискретизация насыщенности : 4:2:0
Битовая глубина : 8 бит
Тип развёртки : Прогрессивная
Бит/(Пиксели*Кадры) : 0.091
Размер потока : 910 Мбайт (94%)
Библиотека кодирования : x264 core 132 r2310 76a5c3a
Настройки программы : cabac=1 / ref=3 / deblock=1:0:0 / analyse=0x3:0x113 / me=hex / subme=7 / psy=1 / psy_rd=1.00:0.00 / mixed_ref=1 / me_range=16 / chroma_me=1 / trellis=1 / 8x8dct=1 / cqm=0 / deadzone=21,11 / fast_pskip=1 / chroma_qp_offset=-2 / threads=48 / lookahead_threads=5 / sliced_threads=0 / nr=0 / decimate=1 / interlaced=0 / bluray_compat=0 / constrained_intra=0 / bframes=3 / b_pyramid=2 / b_adapt=1 / b_bias=0 / direct=1 / weightb=1 / open_gop=0 / weightp=2 / keyint=90 / keyint_min=30 / scenecut=40 / intra_refresh=0 / rc_lookahead=40 / rc=2pass / mbtree=1 / bitrate=2500 / ratetol=1.0 / qcomp=0.60 / qpmin=5 / qpmax=69 / qpstep=4 / cplxblur=20.0 / qblur=0.5 / vbv_maxrate=3750 / vbv_bufsize=12500 / nal_hrd=none / ip_ratio=1.40 / aq=1:1.00
Дата кодирования : UTC 2013-09-14 05:15:19
Дата пометки : UTC 2013-09-14 05:15:19

Аудио
Идентификатор : 2
Формат : AAC
Формат/Информация : Advanced Audio Codec
Профиль формата : LC
Идентификатор кодека : 40
Продолжительность : 50 м.
Продолжительность оригинала : 50 м.
Вид битрейта : Переменный
Битрейт : 157 Кбит/сек
Каналы : 2 канала
Расположение каналов : Front: L R
Частота : 48,0 КГц
Метод сжатия : С потерями
Размер потока : 57,4 Мбайт (6%)
Размер потока оригинала : 57,4 Мбайт (6%)
Дата кодирования : UTC 2013-09-14 05:15:19
Дата пометки : UTC 2013-09-14 05:15:19



   Похожие торренты   Торрент   Размер 
В этой теме нет новых непрочитанных сообщений. Петербургские зарисовки. Избранное (2014) HDRip 720p от waPBX

4 | 1

3.92 ГБ

В этой теме нет новых непрочитанных сообщений. Петербургские зарисовки [24] (2014) HDRip 720p

4 | 3

504.41 МБ

В этой теме нет новых непрочитанных сообщений. Петербургские зарисовки [23] (2014) HDRip 720p

1 | 10

153.45 МБ

В этой теме нет новых непрочитанных сообщений. Петербургские зарисовки [25] (2014) HDRip 720p

6 | 2

357.66 МБ

В этой теме нет новых непрочитанных сообщений. Петербургские зарисовки [22] (2014) HDRip 720p

4 | 4

563.14 МБ

В этой теме нет новых непрочитанных сообщений. Петербургские зарисовки [16-19] (2013) HD 720p

14 | 4

818.97 МБ

В этой теме нет новых непрочитанных сообщений. Зарисовки уходящей осени (2011) HDRip 1080p

1 | 2

418.4 МБ




Вы не можете начинать темы
Вы не можете отвечать на сообщения
Вы не можете редактировать свои сообщения
Вы не можете удалять свои сообщения
Вы не можете добавлять вложения

Перейти:  
Для Мосгорсуда, Роскомнадзора и рекламодателей: mosgorsud-torrent[собачка]yandex.ru
 Вход
ppkBB3cker v.2 © 2008-2014 @ PPK
[ Time : 0.019s | 15 Queries | GZIP : Off ]

Торрент трекер RUTOR.IN, Не можете зайти на rutor.org? Какой новый адрес рутор? Какое зеркало рутор? Не работает rutor.org и зеркала? Тогда наш торрент специально для вас. Rutor.in неофициальное зеркало rutor. В случае если у Вас заблокирован rutor или вдруг Вы не можете на него зайти, то Вы без труда сможете скачать бесплатно и без рекламы последние новинки кино, игр, сериалов и прочего у нас, на Rutor.in. Не нужно использовать прокси, чтобы зайти на рутор, достаточно воспользоваться нашим ресурсом. Все новые фильмы, игры, сериалы, книги и музыка за 2013 и 2014 годы через торрент бесплатно. Скачивайте фильмы в хорошем качестве, игры для пк, xbox, playstation без регистрации. У нас вы найдете новые Зарубежные сериалы и Русские сериалы 2013, 2014, 2015 годов. Оставайтесь с нами, качайте любимые фильмы, игры, сериалы, книги и музыку.