img image001 image001 image001 image001 image001 image001 image001 image001 image001 image001 image001 image001 image001 image001 image001

Planets Sun Sun Sun
Статистика раздачи
Автор: PriZraK | Размер: 1.84 ГБ | Добавлен: 31 дек 2015
Раздают: 153    Качают: 4
Скачать торрент
Скачать торрент
Описание торрента

СообщениеДобавлено: 31 дек 2015 



Год выпуска: 2015
Страна: Россия
Жанр: аналитика, политика, экономика, история, геополитика
Перевод: Не требуется
Русские субтитры: нет
Продолжительность: 8 роликов по 15-90 мин.

Описание: Николай Викторович Стариков родился 23 августа 1970 году в городе Ленинграде. Женат, растит двоих дочерей. В 1992 году закончил Санкт-Петербургский Инженерно-Экономический институт (экономист по образованию). Увлечение историей, подтолкнуло к написанию книг. Увидев закономерности политического и исторического развития России, скрытые пружины катастроф и катаклизмов, случившихся со страной, решил начать писать книги. В качестве эксперта снимался в документальных фильмах «Парвус революции», «Штурм Зимнего. Опровержение», а также в документальных циклах "Секретные материалы" и "Русская версия". Неоднократно выступал в эфире радиостанций, рассказывая любопытные и малоизвестные исторические факты. Постоянно выступает на публике, читая лекции по истории в крупнейших книжных магазинах Санкт-Петербурга.
Доп.инфо: Сборник выступлений, интервью и встреч с читателями с официального сайта Николая Старикова за 2015 год.

Источник: nstarikov.ru
Качество: CamRip
Формат видео: AVI
Видео кодек: XviD
Аудио кодек: MP3
Видео: 640x360 (1.78:1), 25 fps, XviD build 73 500 kbps avg, 0.09 bit/pixel (у всех файлов)
Аудио: 44.100 kHz, MPEG Layer 3, 2 ch, 96.00 kbps avg (у всех файлов)

General
Complete name : 2015-01-14. Видеоблог 57.avi
Format : AVI
Format/Info : Audio Video Interleave
File size : 230 MiB
Duration : 53mn 3s
Overall bit rate : 605 Kbps
Writing application : VirtualDubMod 1.5.10.3 | www.virtualdub-fr.org || (build 2550/release)
Writing library : VirtualDubMod build 2550/release
Video
ID : 0
Format : MPEG-4 Visual
Format profile : Advanced Simple@L5
Format settings, BVOP : 1
Format settings, QPel : No
Format settings, GMC : No warppoints
Format settings, Matrix : Default (H.263)
Codec ID : XVID
Codec ID/Hint : XviD
Duration : 53mn 3s
Bit rate : 500 Kbps
Width : 640 pixels
Height : 360 pixels
Display aspect ratio : 16:9
Frame rate : 25.000 fps
Color space : YUV
Chroma subsampling : 4:2:0
Bit depth : 8 bits
Scan type : Progressive
Compression mode : Lossy
Bits/(Pixel*Frame) : 0.087
Stream size : 190 MiB (83%)
Writing library : XviD 73
Audio
ID : 1
Format : MPEG Audio
Format version : Version 1
Format profile : Layer 3
Codec ID : 55
Codec ID/Hint : MP3
Duration : 53mn 3s
Bit rate mode : Constant
Bit rate : 96.0 Kbps
Channel(s) : 2 channels
Sampling rate : 44.1 KHz
Compression mode : Lossy
Stream size : 36.4 MiB (16%)
Alignment : Split accross interleaves
Interleave, duration : 40 ms (1.00 video frame)
Interleave, preload duratio : 500 ms
Writing library : LAME3.99r
Encoding settings : -m s -V 4 -q 0 -lowpass 15.1 -b 96
2014-01-15. День.ТВ.avi
2015-01-14. Видеоблог 57.avi
2015-01-14. Дом книги, Москва.avi
2015-01-18. Вечер с Владимиром Соловьевым.avi
2015-01-19. Буквоед, Санкт-Петербург.avi
2015-01-22. Стрелков vs. Старикова, Полит-ринг.avi
2015-01-25. Список Норкина.avi
2015-02-01. Видеоблог 59.avi






   Похожие торренты   Торрент   Размер 
В этой теме нет новых непрочитанных сообщений. Стариков Николай - Интервью, выступления, встречи с читателями [113 аудио] [16.07] (2010-2012) MP3

36 | 3

4.49 ГБ

В этой теме нет новых непрочитанных сообщений. Стариков Николай - Интервью, выступления, встречи с читателями [113 видео] [15.07] (2010-2012) SATRip

0 | 3

28.18 ГБ

В этой теме нет новых непрочитанных сообщений. Николай Левашов: интервью, выступления, встречи с читателями. Часть 1 (2006-2010) CAMRip, TS

0 | 4

15.96 ГБ

В этой теме нет новых непрочитанных сообщений. Николай Левашов - Полная сборка интервью, выступлений и встреч с читателями (2006-2012) CAMRip, TS, TVRip

30 | 3

31.65 ГБ

В этой теме нет новых непрочитанных сообщений. Николай Левашов - 36-я встреча с читателями (25.02.2012) CAMRip

2 | 1

481.27 МБ

В этой теме нет новых непрочитанных сообщений. Николай Левашов - 35-я встреча с читателями (28.01.2012) CAMRip

1 | 3

493.29 МБ

В этой теме нет новых непрочитанных сообщений. Николай Левашов. 20-я встреча с читателями (21.08.2010) CamRip

1 | 6

385.33 МБ




Вы не можете начинать темы
Вы не можете отвечать на сообщения
Вы не можете редактировать свои сообщения
Вы не можете удалять свои сообщения
Вы не можете добавлять вложения

Перейти:  
Для Мосгорсуда, Роскомнадзора и рекламодателей: mosgorsud-torrent[собачка]yandex.ru
 Вход
ppkBB3cker v.2 © 2008-2014 @ PPK
[ Time : 0.049s | 15 Queries | GZIP : Off ]

Торрент трекер RUTOR.IN, Не можете зайти на rutor.org? Какой новый адрес рутор? Какое зеркало рутор? Не работает rutor.org и зеркала? Тогда наш торрент специально для вас. Rutor.in неофициальное зеркало rutor. В случае если у Вас заблокирован rutor или вдруг Вы не можете на него зайти, то Вы без труда сможете скачать бесплатно и без рекламы последние новинки кино, игр, сериалов и прочего у нас, на Rutor.in. Не нужно использовать прокси, чтобы зайти на рутор, достаточно воспользоваться нашим ресурсом. Все новые фильмы, игры, сериалы, книги и музыка за 2013 и 2014 годы через торрент бесплатно. Скачивайте фильмы в хорошем качестве, игры для пк, xbox, playstation без регистрации. У нас вы найдете новые Зарубежные сериалы и Русские сериалы 2013, 2014, 2015 годов. Оставайтесь с нами, качайте любимые фильмы, игры, сериалы, книги и музыку.