img image001 image001 image001 image001 image001 image001 image001 image001 image001 image001 image001 image001 image001 image001 image001

Planets Sun Sun Sun
Статистика раздачи
Автор: PriZraK | Размер: 7.57 ГБ | Добавлен: 31 дек 2015
Раздают: 127    Качают: 86
Скачать торрент
Скачать торрент
Описание торрента

СообщениеДобавлено: 31 дек 2015 

МАТЕМАТИКА. Подготовка к ЕГЭ. Часть С, 11 класс. Foxford



Страна: Россия
Тематика: Математика, ЕГЭ, видеокурсы
Тип раздаваемого материала: Видеоурок
Продолжительность: 31:16:54
Год выпуска: 2014-2015

Язык: Русский
Перевод: Не требуется

Описание: Этот курс - для тех выпускников, кто ставит себе цель сдать ЕГЭ на 100 баллов. Поэтому на занятиях мы уделим наибольшее внимание самым сложным задачам - задачам с комбинаторными мотивами, задачам из теории чисел, задачам с параметрами, логарифмическим неравенствам и задачам по планиметрии. Данный курс - очень эффективный способ готовиться к экзамену. У нас с вами будет 100 часов занятий для того, чтобы вы получили свои 100 баллов на ЕГЭ. Научиться решать задачи части С - реально!

Преподаватель: Трушин Б. В. Кандидат физико-математических наук, доцент кафедры высшей математики МФТИ. Член жюри Всероссийской олимпиады школьников по математике, учитель высшей категории с четырнадцатилетним стажем преподавания в одной из лучших физмат-школ страны. Автор школьных учебников по алгебре.

Доп. информация: В раздаче присутствуют четырнадцать видеоуроков, вышедших на момент ее создания, из тридцати заявленных. Пополнение/обновление раздачи производиться не будет.
1. Занятие 1. Введение в теорию чисел
2. Занятие 2. Сравнение по модулю
3. Занятие 3. Прогрессии
4. Занятие 4. Решение задачи 21 (C6)
5. Занятие 5. Тригонометрия
6. Занятие 6. Решение задачи 15 (C1)
7. Занятие 7. Треугольники
8. Занятие 8. Четырехугольники
9. Занятие 9. Окружности
10. Занятие 10. Решение задачи 18 (C4)
11. Занятие 11. Решение задачи 17 (C3)
12. Занятие 12. Логарифм
13. Занятие 13. Решение задачи 17 (C3)
14. Занятие 14. Решение задачи 17 (C3)



Качество: WEBRip
Формат: MP4
Видео кодек: AVC
Аудио кодек: AAC
Видео: MPEG4 Video (H264) 960x720 15fps 493kbps [V: h264 high L3.1, yuv420p, 960x720, 493 kb/s]
Аудио: AAC 22050Hz stereo 95kbps [A: SoundHandler (aac lc, 22050 Hz, stereo, 95 kb/s)]
General
Format : MPEG-4
Format profile : Base Media
Codec ID : isom
File size : 652 MiB
Duration : 2h 33mn
Overall bit rate : 594 Kbps
Writing application : Lavf55.33.100

Video
ID : 1
Format : AVC
Format/Info : Advanced Video Codec
Format profile : High@L3.1
Format settings, CABAC : Yes
Format settings, ReFrames : 4 frames
Codec ID : avc1
Codec ID/Info : Advanced Video Coding
Duration : 2h 33mn
Bit rate : 493 Kbps
Width : 960 pixels
Height : 720 pixels
Display aspect ratio : 4:3
Frame rate mode : Variable
Frame rate : 14.290 fps
Minimum frame rate : 5.000 fps
Maximum frame rate : 15.152 fps
Color space : YUV
Chroma subsampling : 4:2:0
Bit depth : 8 bits
Scan type : Progressive
Bits/(Pixel*Frame) : 0.050
Stream size : 542 MiB (83%)
Writing library : x264 core 142 r0+2 d7e6896
Encoding settings : cabac=1 / ref=2 / deblock=1:0:0 / analyse=0x3:0x113 / me=hex / subme=6 / psy=0 / mixed_ref=0 / me_range=16 / chroma_me=1 / trellis=1 / 8x8dct=1 / cqm=0 / deadzone=21,11 / fast_pskip=1 / chroma_qp_offset=0 / threads=12 / lookahead_threads=2 / sliced_threads=0 / nr=0 / decimate=1 / interlaced=0 / bluray_compat=0 / constrained_intra=0 / bframes=3 / b_pyramid=2 / b_adapt=1 / b_bias=0 / direct=1 / weightb=1 / open_gop=0 / weightp=1 / keyint=15 / keyint_min=1 / scenecut=40 / intra_refresh=0 / rc_lookahead=16 / rc=crf / mbtree=1 / crf=23.0 / qcomp=0.60 / qpmin=0 / qpmax=69 / qpstep=4 / vbv_maxrate=500 / vbv_bufsize=550 / crf_max=0.0 / nal_hrd=none / filler=0 / ip_ratio=1.40 / aq=2:1.00

Audio
ID : 2
Format : AAC
Format/Info : Advanced Audio Codec
Format profile : LC
Codec ID : 40
Duration : 2h 33mn
Bit rate mode : Constant
Bit rate : 96.0 Kbps
Channel(s) : 2 channels
Channel positions : Front: L R
Sampling rate : 22.05 KHz
Compression mode : Lossy
Stream size : 105 MiB (16%)



Скриншоты:
















   Похожие торренты   Торрент   Размер 
В этой теме нет новых непрочитанных сообщений. Математика. Подготовка к ЕГЭ. Часть B, 11 класс. Foxford (2014-2015) WEBRip

58 | 5

8.06 ГБ

В этой теме нет новых непрочитанных сообщений. Физика. Подготовка к ЕГЭ. Часть B, 11 класс. Foxford (2014-2015) WEBRip

216 | 163

8.86 ГБ

В этой теме нет новых непрочитанных сообщений. Информатика. Подготовка к ЕГЭ, 11 класс. Foxford (2014-2015) WEBRip

221 | 20

8.68 ГБ

В этой теме нет новых непрочитанных сообщений. Химия. Подготовка к ЕГЭ, 11 класс. Foxford (2014-2015) WEBRip

43 | 14

8.69 ГБ

В этой теме нет новых непрочитанных сообщений. Биология. Подготовка к ЕГЭ, 11 класс. Foxford (2014-2015) WEBRip

109 | 21

8.07 ГБ

В этой теме нет новых непрочитанных сообщений. Русский язык. Подготовка к ЕГЭ. Части А и В, 11 класс. Foxford (2014-2015) WEBRip

187 | 12

7.29 ГБ

В этой теме нет новых непрочитанных сообщений. Математика 7-11 Класс. Обучающий видеокурс (2011) PC

45 | 7

499.46 МБ




Вы не можете начинать темы
Вы не можете отвечать на сообщения
Вы не можете редактировать свои сообщения
Вы не можете удалять свои сообщения
Вы не можете добавлять вложения

Перейти:  
Для Мосгорсуда, Роскомнадзора и рекламодателей: mosgorsud-torrent[собачка]yandex.ru
 Вход
ppkBB3cker v.2 © 2008-2014 @ PPK
[ Time : 0.026s | 14 Queries | GZIP : Off ]

Торрент трекер RUTOR.IN, Не можете зайти на rutor.org? Какой новый адрес рутор? Какое зеркало рутор? Не работает rutor.org и зеркала? Тогда наш торрент специально для вас. Rutor.in неофициальное зеркало rutor. В случае если у Вас заблокирован rutor или вдруг Вы не можете на него зайти, то Вы без труда сможете скачать бесплатно и без рекламы последние новинки кино, игр, сериалов и прочего у нас, на Rutor.in. Не нужно использовать прокси, чтобы зайти на рутор, достаточно воспользоваться нашим ресурсом. Все новые фильмы, игры, сериалы, книги и музыка за 2013 и 2014 годы через торрент бесплатно. Скачивайте фильмы в хорошем качестве, игры для пк, xbox, playstation без регистрации. У нас вы найдете новые Зарубежные сериалы и Русские сериалы 2013, 2014, 2015 годов. Оставайтесь с нами, качайте любимые фильмы, игры, сериалы, книги и музыку.