img image001 image001 image001 image001 image001 image001 image001 image001 image001 image001 image001 image001 image001 image001 image001

Planets Sun Sun Sun
Статистика раздачи
Автор: PriZraK | Размер: 7.29 ГБ | Добавлен: 31 дек 2015, 06:56
Раздают: 187    Качают: 12
Скачать торрент
Скачать торрент
Описание торрента

СообщениеДобавлено: 31 дек 2015, 06:56 

РУССКИЙ ЯЗЫК. Подготовка к ЕГЭ. Части А и В, 11 класс. Foxford



Страна: Россия
Тематика: Русский язык, ЕГЭ, видеокурсы
Тип раздаваемого материала: Видеоурок
Продолжительность: 30:58:41
Год выпуска: 2014-2015

Язык: Русский
Перевод: Не требуется

Описание: Цель курса - повторить, обобщить и систематизировать материал всей программы средней школы и подготовиться к экзаменам. Наша задача - навигация по курсу русского языка и пошаговое овладение необходимыми знаниями. Каждое занятие курса содержит свод правил, изложенных в простой и доступной форме, и разнообразные тренировочные упражнения на отработку этих правил.

Преподаватель: Великова Л. В. 25 лет педагогического стажа в лучших школах Москвы, учитель высшей категории. Педагог подготовительного отделения для поступающих. Автор учебника "Русский язык для старшеклассников и абитуриентов" и учебного пособия "Тренировочные задания для подготовки к ЕГЭ".

Доп. информация: В раздаче присутствуют четырнадцать видеоуроков из тридцати заявленных. Пополнение/обновление раздачи производиться не будет.
1. Занятие 1. Безударные гласные в корне
2. Занятие 2. Виды односоставных предложений
3. Занятие 3. Двойные и непроизносимые согласные
4. Занятие 4. Тире в простом предложении
5. Занятие 5. Буквы -з и -с, -и и -ы после приставок
6. Занятие 6. Однородные и неоднородные определения
7. Занятие 7. Приставки пре- и при-
8. Занятие 8. Однородные члены предложения
9. Занятие 9. Гласные после шипящих и -ц-
10. Занятие 10. Двоеточие и тире при однородных членах
11. Занятие 11. Буквы -ь- и -ъ- в разных частях речи
12. Занятие 12. Обособленные определения и приложения
13. Занятие 13. Правописание окончаний
14. Занятие 14. Обособленные обстоятельства



Качество: WEBRip
Формат: MP4
Видео кодек: AVC
Аудио кодек: AAC
Видео: MPEG4 Video (H264) 960x720 15fps 457kbps [V: h264 high L3.1, yuv420p, 960x720, 457 kb/s]
Аудио: AAC 22050Hz stereo 95kbps [A: SoundHandler (aac lc, 22050 Hz, stereo, 95 kb/s)]
General
Format : MPEG-4
Format profile : Base Media
Codec ID : isom
File size : 535 MiB
Duration : 2h 13mn
Overall bit rate : 559 Kbps
Writing application : Lavf55.33.100

Video
ID : 1
Format : AVC
Format/Info : Advanced Video Codec
Format profile : High@L3.1
Format settings, CABAC : Yes
Format settings, ReFrames : 4 frames
Codec ID : avc1
Codec ID/Info : Advanced Video Coding
Duration : 2h 13mn
Bit rate : 458 Kbps
Width : 960 pixels
Height : 720 pixels
Display aspect ratio : 4:3
Frame rate mode : Variable
Frame rate : 14.258 fps
Minimum frame rate : 5.000 fps
Maximum frame rate : 15.152 fps
Color space : YUV
Chroma subsampling : 4:2:0
Bit depth : 8 bits
Scan type : Progressive
Bits/(Pixel*Frame) : 0.046
Stream size : 438 MiB (82%)
Writing library : x264 core 142 r0+2 d7e6896
Encoding settings : cabac=1 / ref=2 / deblock=1:0:0 / analyse=0x3:0x113 / me=hex / subme=6 / psy=0 / mixed_ref=0 / me_range=16 / chroma_me=1 / trellis=1 / 8x8dct=1 / cqm=0 / deadzone=21,11 / fast_pskip=1 / chroma_qp_offset=0 / threads=12 / lookahead_threads=2 / sliced_threads=0 / nr=0 / decimate=1 / interlaced=0 / bluray_compat=0 / constrained_intra=0 / bframes=3 / b_pyramid=2 / b_adapt=1 / b_bias=0 / direct=1 / weightb=1 / open_gop=0 / weightp=1 / keyint=15 / keyint_min=1 / scenecut=40 / intra_refresh=0 / rc_lookahead=16 / rc=crf / mbtree=1 / crf=23.0 / qcomp=0.60 / qpmin=0 / qpmax=69 / qpstep=4 / vbv_maxrate=500 / vbv_bufsize=550 / crf_max=0.0 / nal_hrd=none / filler=0 / ip_ratio=1.40 / aq=2:1.00

Audio
ID : 2
Format : AAC
Format/Info : Advanced Audio Codec
Format profile : LC
Codec ID : 40
Duration : 2h 13mn
Bit rate mode : Constant
Bit rate : 96.0 Kbps
Channel(s) : 2 channels
Channel positions : Front: L R
Sampling rate : 22.05 KHz
Compression mode : Lossy
Stream size : 91.9 MiB (17%)







   Похожие торренты   Торрент   Размер 
В этой теме нет новых непрочитанных сообщений. Биология. Подготовка к ЕГЭ, 11 класс. Foxford (2014-2015) WEBRip

109 | 21

8.07 ГБ

В этой теме нет новых непрочитанных сообщений. Химия. Подготовка к ЕГЭ, 11 класс. Foxford (2014-2015) WEBRip

43 | 14

8.69 ГБ

В этой теме нет новых непрочитанных сообщений. Информатика. Подготовка к ЕГЭ, 11 класс. Foxford (2014-2015) WEBRip

221 | 20

8.68 ГБ

В этой теме нет новых непрочитанных сообщений. Математика. Подготовка к ЕГЭ. Часть C, 11 класс. Foxford (2014-2015) WEBRip

132 | 86

7.57 ГБ

В этой теме нет новых непрочитанных сообщений. Математика. Подготовка к ЕГЭ. Часть B, 11 класс. Foxford (2014-2015) WEBRip

63 | 5

8.06 ГБ

В этой теме нет новых непрочитанных сообщений. Физика. Подготовка к ЕГЭ. Часть B, 11 класс. Foxford (2014-2015) WEBRip

216 | 163

8.86 ГБ

В этой теме нет новых непрочитанных сообщений. Сенина Н.А. - Русский язык. Подготовка к ЕГЭ-2012 (2011) PDF

77 | 3

17.74 МБ




Вы не можете начинать темы
Вы не можете отвечать на сообщения
Вы не можете редактировать свои сообщения
Вы не можете удалять свои сообщения
Вы не можете добавлять вложения

Перейти:  
Для Мосгорсуда, Роскомнадзора и рекламодателей: mosgorsud-torrent[собачка]yandex.ru
Настройки
ppkBB3cker v.2 © 2008-2014 @ PPK
[ Time : 0.015s | 16 Queries | GZIP : On ]
CGP [Extreme] output time : 0.00073s | 0 Queries | GZIP : On

Торрент трекер RUTOR.IN, Не можете зайти на rutor.org? Какой новый адрес рутор? Какое зеркало рутор? Не работает rutor.org и зеркала? Тогда наш торрент специально для вас. Rutor.in неофициальное зеркало rutor. В случае если у Вас заблокирован rutor или вдруг Вы не можете на него зайти, то Вы без труда сможете скачать бесплатно и без рекламы последние новинки кино, игр, сериалов и прочего у нас, на Rutor.in. Не нужно использовать прокси, чтобы зайти на рутор, достаточно воспользоваться нашим ресурсом. Все новые фильмы, игры, сериалы, книги и музыка за 2013 и 2014 годы через торрент бесплатно. Скачивайте фильмы в хорошем качестве, игры для пк, xbox, playstation без регистрации. У нас вы найдете новые Зарубежные сериалы и Русские сериалы 2013, 2014, 2015 годов. Оставайтесь с нами, качайте любимые фильмы, игры, сериалы, книги и музыку.