img image001 image001 image001 image001 image001 image001 image001 image001 image001 image001 image001 image001 image001 image001 image001

Planets Sun Sun Sun
Статистика раздачи
Автор: PriZraK | Размер: 1.37 ГБ | Добавлен: 11 авг 2016
Раздают: 9    Качают: 2
Скачать торрент
Скачать торрент
Описание торрента

СообщениеДобавлено: 11 авг 2016 


Перевод:Не требуется, субтитры: отсутствуют
Формат:DVDRір, АVІ, ХvіD, АС3
Страна:Россия
Режиссер:Александр Поляков
Жанр:эротика, стриптиз
Продолжительность:01:06:16
Год выпуска:2008
В ролях: Елена Беркова
Описание:Фильм с участием первой российской "Thе роrn-stаr" порно звезды - ЕЛЕНОЙ БЕРКОВОЙ. В главной роли Елена Беркова.
Видео:
720х544 (4:3), 25.000 fрs, MРЕG-4 Vіsuаl , Аdvаnсеd Sіmрlе@L5, ~2755 Kbрs , 0.281 bіt/ріхеl
Аудио:
АС3 СBR ,48.0 kHz, 2 сh, ~192 Kbрs
Доп. информация:
Концовка фильма обрезана, не хватает 7 минут. Источник DVD был заезжен, поцарапан.
Не хватает немного болтовни и титров, главная часть сохранена.


General
Complete name : C:-=Мои Релизы=-berkova_2008_[tfile.ru].avi
Format : AVI
Format/Info : Audio Video Interleave
File size : 1.37 GiB
Duration : 1h 6mn
Overall bit rate : 2 954 Kbps
Writing application : VirtualDubMod 1.5.4.1 (build 2178/release)
Writing library : VirtualDubMod build 2178/release
Video
ID : 0
Format : MPEG-4 Visual
Format profile : Advanced Simple@L5
Format settings, BVOP : 1
Format settings, QPel : No
Format settings, GMC : No warppoints
Format settings, Matrix : Custom
Codec ID : XVID
Codec ID/Hint : XviD
Duration : 1h 6mn
Bit rate : 2 755 Kbps
Width : 720 pixels
Height : 544 pixels
Display aspect ratio : 4:3
Frame rate : 25.000 fps
Color space : YUV
Chroma subsampling : 4:2:0
Bit depth : 8 bits
Scan type : Progressive
Compression mode : Lossy
Bits/(Pixel*Frame) : 0.281
Stream size : 1.28 GiB (93%)
Writing library : XviD 64
Audio
ID : 1
Format : AC-3
Format/Info : Audio Coding 3
Mode extension : CM (complete main)
Format settings, Endianness : Big
Codec ID : 2000
Duration : 1h 6mn
Bit rate mode : Constant
Bit rate : 192 Kbps
Channel(s) : 2 channels
Channel positions : Front: L R
Sampling rate : 48.0 KHz
Bit depth : 16 bits
Compression mode : Lossy
Stream size : 91.0 MiB (6%)
Alignment : Split accross interleaves
Interleave, duration : 96 ms (2.40 video frames)
Interleave, preload duration : 96 ms



   Похожие торренты   Торрент   Размер 
В этой теме нет новых непрочитанных сообщений. Елена Образцова. Прощай, королева! (2015) HDTVRip от ExKinoRay

85 | 6

734.32 МБ

В этой теме нет новых непрочитанных сообщений. Елена Кан - Йога для женского здоровья (2008) DVDRip от New-Team

110 | 9

697.34 МБ

В этой теме нет новых непрочитанных сообщений. Елена Ваенга - Ледяное сердце: Первый сольный концерт на льду (2008) DVDRip

12 | 4

1023.56 МБ

В этой теме нет новых непрочитанных сообщений. Королева льда (2008) DVDRip wowa63

77 | 4

1.37 ГБ

В этой теме нет новых непрочитанных сообщений. Русская жертва (Елена Ляпичева, Ирина Мелетина, Михаил Добрынин) [2008, военный, DVDRip]

68 | 0

1.36 ГБ

В этой теме нет новых непрочитанных сообщений. Королева льда / Снежная королева / Ice Queen (2005) DVDRip

36 | 8

1.36 ГБ

В этой теме нет новых непрочитанных сообщений. Энциклопедия секса: Откровения обо всем: Секс и Вы + Библия Секса (2002-2009) PDF,EXE

17 | 9

8.14 МБ




Вы не можете начинать темы
Вы не можете отвечать на сообщения
Вы не можете редактировать свои сообщения
Вы не можете удалять свои сообщения
Вы не можете добавлять вложения

Перейти:  
Для Мосгорсуда, Роскомнадзора и рекламодателей: mosgorsud-torrent[собачка]yandex.ru
 Вход
ppkBB3cker v.2 © 2008-2014 @ PPK
[ Time : 0.058s | 15 Queries | GZIP : Off ]

Торрент трекер RUTOR.IN, Не можете зайти на rutor.org? Какой новый адрес рутор? Какое зеркало рутор? Не работает rutor.org и зеркала? Тогда наш торрент специально для вас. Rutor.in неофициальное зеркало rutor. В случае если у Вас заблокирован rutor или вдруг Вы не можете на него зайти, то Вы без труда сможете скачать бесплатно и без рекламы последние новинки кино, игр, сериалов и прочего у нас, на Rutor.in. Не нужно использовать прокси, чтобы зайти на рутор, достаточно воспользоваться нашим ресурсом. Все новые фильмы, игры, сериалы, книги и музыка за 2013 и 2014 годы через торрент бесплатно. Скачивайте фильмы в хорошем качестве, игры для пк, xbox, playstation без регистрации. У нас вы найдете новые Зарубежные сериалы и Русские сериалы 2013, 2014, 2015 годов. Оставайтесь с нами, качайте любимые фильмы, игры, сериалы, книги и музыку.
cron