img image001 image001 image001 image001 image001 image001 image001 image001 image001 image001 image001 image001 image001 image001 image001

Planets Sun Sun Sun
Статистика раздачи
Автор: Снежана | Размер: 698.18 МБ | Добавлен: 12 авг 2013
Раздают: 32    Качают: 7
Скачать торрент
Скачать торрент
Описание торрента

СообщениеДобавлено: 12 авг 2013 

Сарила: Затерянная земля
The legend of Sarila
La légende de Sarila
(2013)
DVDRip-AVC [Hi10P] от FREEISLAND




Год выпуска: 2013
Страна: Канада
Жанр: мультфильм, приключения
Продолжительность: 1 ч. 14 м. 2 с. (титры обрезаны в целях экономии битрейта)
Перевод: русский, профессиональный (полное дублирование)

Режиссер: Нэнси Севард
Продюссер: Мари-Клод Бошан, Пол Рисачер, Нэнси Севард
Сценарий: Роджер Харви, Пьер Тремблэ, Пол Рисачер
Композитор: Оливье Ориоль
Студия: CarpeDiem Film & TV, Cinema Management Inc., Productions 10th Ave

Роли дублировали:
Михаил Бескаравайный - Croolik, Наталья Терешкова - Apik, Михаил Тихонов - Markussi, Дмитрий Поляновский - Poutulik, Галина Казакова - Saya, Сергей Чихачев - Itak, Анна Денисова - Mipoulok, Антон Савенков - Arlok, Ирина Киреева - Sedna, Владимир Рыбальченко - Uliak

Бюджет: $232 174
Релиз на DVD: 23 июля 2013, «Парадиз / Активижен»
Премьера в мире: 22 февраля 2013



Описание:
Далеко на севере лагерь эскимосов-кочевников находится под угрозой голода и вымирания. Шаман племени, Крулик, не в силах помочь, и людей охватывает отчаяние. Некоторые из них обретают надежду в древней легенде о далёкой Сариле — земле, спрятанной среди ледников, в которой не существует холода и голода. Легенда гласит, что только те, кто чист сердцем, могут попасть в это священное место. Трое молодых людей соглашаются отправиться на поиски Сарилы, чтобы спасти своё племя. Среди них — юный Маркусси, обладающий способностями шамана. Предчувствуя, что его власть находится под угрозой, старый шаман пытается избавиться от своего соперника с помощью сил зла, пытаясь помешать миссии трёх молодых героев. Постепенно Маркусси понимает, что он должен не только найти Сарилу, но и разоблачить предателя Крулика...

Внимание!

Рип в High 10 Profile, в настоящее время не поддерживается большинством аппаратных проигрывателей.
Для корректного воспроизведения может потребоваться обновление ПО.
Владельцам несовместимого железа просьба не беспокоить, на трекере есть альтернативные релизы.

Качество: DVDRip-AVC Hi10P (SSIM: 0.9841537)
Исходник: DVD5
Контейнер: MKV
Видео кодек: x264 High10@L4.0
Аудио кодек: AC-3
Видео: AVC at 1125 Кбит/сек, 720 x 570 @ 1024 x 570 (1.796) at 25.000 fps
Аудио: AC-3 at 192 Кбит/сек, 2 канала, 48,0 КГц
Субтитры: нет
Навигация по главам: есть


Общее
Уникальный идентификатор : 185093778112720124077838112257824183769 (0x8B3FC3D5A4FA04DAB600389C7016D5D9)
Полное имя :Сарила. Затерянная земля [The legend of Sarila] (2013) DVDRip-Hi10P by_F.HD.mkv
Формат : Matroska
Версия формата : Version 4 / Version 2
Размер файла : 698 Мбайт
Продолжительность : 1 ч. 14 м.
Общий поток : 1318 Кбит/сек
Название фильма : релиз от FREEISLAND.ORG
Дата кодирования : UTC 2013-08-11 08:38:27
Программа кодирования : mkvmerge v6.3.0 ('You can't stop me!') built on Jun 28 2013 20:09:41
Библиотека кодирования : libebml v1.3.0 + libmatroska v1.4.0

Видео
Идентификатор : 1
Формат : AVC
Формат/Информация : Advanced Video Codec
Профиль формата : High 10@L4.0
Параметр CABAC формата : Да
Параметр ReFrames формата : 16 кадров
Идентификатор кодека : V_MPEG4/ISO/AVC
Продолжительность : 1 ч. 14 м.
Битрейт : 1125 Кбит/сек
Ширина : 720 пикселей
Высота : 570 пикселей
Соотношение сторон : 16:9
Частота кадров : 25,000 кадров/сек
Цветовое пространство : YUV
Субдискретизация насыщенности : 4:2:0
Битовая глубина : 10 бит
Тип развёртки : Прогрессивная
Бит/(Пиксели*Кадры) : 0.110
Размер потока : 583 Мбайт (83%)
Библиотека кодирования : x264 core 136 r2348+704+51 d1baef6 tMod [10-bit@all X86_64]
Настройки программы : cabac=1 / ref=16 / deblock=1:1:1 / analyse=0x3:0x133 / me=umh / subme=11 / psy=1 / fade_compensate=0.00 / psy_rd=1.00:0.10 / mixed_ref=1 / me_range=64 / chroma_me=1 / trellis=2 / 8x8dct=1 / cqm=0 / deadzone=21,11 / fast_pskip=0 / chroma_qp_offset=-3 / threads=12 / lookahead_threads=3 / sliced_threads=0 / nr=0 / decimate=1 / interlaced=0 / bluray_compat=0 / constrained_intra=0 / fgo=0 / bframes=11 / b_pyramid=2 / b_adapt=2 / b_bias=0 / direct=3 / weightb=1 / open_gop=0 / weightp=2 / keyint=300 / keyint_min=20 / scenecut=40 / intra_refresh=0 / rc_lookahead=0 / rc=2pass / mbtree=0 / bitrate=1125 / ratetol=1.0 / qcomp=1.00 / qpmin=0:0:0 / qpmax=48:48:48 / qpstep=4 / cplxblur=20.0 / qblur=0.5 / vbv_maxrate=50000 / vbv_bufsize=62500 / nal_hrd=none / ip_ratio=1.40 / pb_ratio=1.30 / aq=4:0.70 / aq-sensitivity=15.00 / aq-factor=1.00:1.00:1.00 / aq2=1:1.10 / aq2-sensitivity=10.00 / aq2-factor=1.00:1.00:1.00 / aq3=0
Default : Да
Forced : Нет
Основные цвета : BT.601-6 525, BT.1358 525, BT.1700 NTSC, SMPTE 170M
Характеристики трансфера : BT.601-6 525, BT.601-6 625, BT.1358 525, BT.1358 625, BT.1700 NTSC, SMPTE 170M
Коэффициенты матрицы : BT.601-6 525, BT.1358 525, BT.1700 NTSC, SMPTE 170M

Аудио
Идентификатор : 2
Формат : AC-3
Формат/Информация : Audio Coding 3
Расширение режима : CM (complete main)
Идентификатор кодека : A_AC3
Продолжительность : 1 ч. 14 м.
Вид битрейта : Постоянный
Битрейт : 192 Кбит/сек
Каналы : 2 канала
Расположение каналов : Front: L R
Частота : 48,0 КГц
Битовая глубина : 16 бит
Метод сжатия : С потерями
Размер потока : 102 Мбайт (15%)
Заголовок : Dub
Язык : Russian
Default : Да
Forced : Нет

Меню
00:00:00.000 : :01
00:06:29.920 : :02
00:13:22.880 : :03
00:17:47.440 : :04
00:23:25.120 : :05
00:30:36.320 : :06
00:36:09.800 : :07
00:41:46.640 : :08
00:47:47.680 : :09
00:54:09.760 : :10
01:04:30.840 : :11













Релиз от:

Если у вас возникают вопросы типа:
-почему у меня есть звук и отсутствует изображение?
-почему у меня рассыпается картинка?
-почему у меня картинка фонит синевой или зеленью?
-зачем и кому всё это нужно?
и тому подобные, читаем FAQ.
ссылка на FAQ запрещена правилами.

По этому, гуглим на тему спойлера (Что такое 10-ти битное видео (High 10 Profile - Hi10P), и как его смотреть?).



   Похожие торренты   Торрент   Размер 
В этой теме нет новых непрочитанных сообщений. Сарила: Затерянная земля / The legend of Sarila (2013) DVDRip-AVC от Youtracker | лицензия

136 | 10

1.46 ГБ

В этой теме нет новых непрочитанных сообщений. Сарила: Затерянная земля / The legend of Sarila (2013) DVDRip от Generalfilm | КПК | лицензия

16 | 2

268.61 МБ

В этой теме нет новых непрочитанных сообщений. Сарила: Затерянная земля / The legend of Sarila (2013) DVDRip от Youtracker | лицензия

231 | 7

1.46 ГБ

В этой теме нет новых непрочитанных сообщений. Сарила: Затерянная земля / The legend of Sarila (2013) DVDRip от Youtracker | лицензия

71 | 12

746.71 МБ

В этой теме нет новых непрочитанных сообщений. Сарила: Затерянная земля / The legend of Sarila (2013) DVD5 R5 от Youtracker | лицензия

15 | 5

3.53 ГБ

В этой теме нет новых непрочитанных сообщений. Сарила: Затерянная земля / The Legend of Sarila (2013) BDRip 720p от HELLYWOOD | Лицензия

193 | 24

2.91 ГБ

В этой теме нет новых непрочитанных сообщений. Сарила: Затерянная земля / The Legend of Sarila (2013) BDRip 1080p от Ash61 | 3D-Video | halfOU

124 | 13

3.65 ГБ




Вы не можете начинать темы
Вы не можете отвечать на сообщения
Вы не можете редактировать свои сообщения
Вы не можете удалять свои сообщения
Вы не можете добавлять вложения

Перейти:  
Для Мосгорсуда, Роскомнадзора и рекламодателей: mosgorsud-torrent[собачка]yandex.ru
 Вход
ppkBB3cker v.2 © 2008-2014 @ PPK
[ Time : 0.039s | 15 Queries | GZIP : Off ]

Торрент трекер RUTOR.IN, Не можете зайти на rutor.org? Какой новый адрес рутор? Какое зеркало рутор? Не работает rutor.org и зеркала? Тогда наш торрент специально для вас. Rutor.in неофициальное зеркало rutor. В случае если у Вас заблокирован rutor или вдруг Вы не можете на него зайти, то Вы без труда сможете скачать бесплатно и без рекламы последние новинки кино, игр, сериалов и прочего у нас, на Rutor.in. Не нужно использовать прокси, чтобы зайти на рутор, достаточно воспользоваться нашим ресурсом. Все новые фильмы, игры, сериалы, книги и музыка за 2013 и 2014 годы через торрент бесплатно. Скачивайте фильмы в хорошем качестве, игры для пк, xbox, playstation без регистрации. У нас вы найдете новые Зарубежные сериалы и Русские сериалы 2013, 2014, 2015 годов. Оставайтесь с нами, качайте любимые фильмы, игры, сериалы, книги и музыку.