img image001 image001 image001 image001 image001 image001 image001 image001 image001 image001 image001 image001 image001 image001 image001

Planets Sun Sun Sun
Статистика раздачи
Автор: Снежана | Размер: 2.06 ГБ | Добавлен: 11 авг 2013
Раздают: 289    Качают: 9
Скачать торрент
Скачать торрент
Описание торрента

СообщениеДобавлено: 11 авг 2013 


Информация о фильме
Название: Серые волки (Немецкие подводные лодки 1939-1945)
Оригинальное название: Grey wolves (U-boats 1939-1945)
Год выхода: 2005
Жанр: Документальный ,кинохроника
О фильме
Фильм смонтирован в виде исторического обзора и повествует об истории создания и боевого применения подводного флота фашистской Германии, охватывая значительный исторический период с 1914 г. по 1945 г. Подробно освещается история подводного флота Германии между 1939 и 1945 г. Это рассказ о подлодках различных типов, о жизни их экипажей, о трудных и опасных боевых походах, о действиях Германского военного флота и его последующем поражении в годы второй Мировой войны, о трагических судьбах тысяч людей. Видеоряд базируется на хроникальных киноматериалах, редких фотографиях и различных документах, сопровождается закадровым дикторским аудиокомментариями.
Страна: Великобритания.
Продолжительность: 02:45:00
Перевод: Профессиональный одноголосый
Файл
Формат: MKV
Качество: DVDRip-AVC
Видео: MPEG4 AVC, 768 x 576, 25.000 fps, 1650 - 1780 Кбит/с
Звук: AC-3, 2 ch, 128 Кбит/с
Субтитры: Нет

General
Unique ID : 180182297439135061368522160202741606566 (0x878DD92433C391DFAC38AF38C32268A6)
Complete name : D:DownloadsСделанные фильмыU-boats.1939-1945.2005.x264.DVDRip.(AVC).by.HD-NET.mkv
Format : Matroska
Format version : Version 2
File size : 2.06 GiB
Duration : 2h 45mn
Overall bit rate : 1 780 Kbps
Encoded date : UTC 2013-07-29 22:23:03
Writing application : mkvmerge v6.1.0 ('Old Devil') built on Mar 4 2013 09:10:42
Writing library : libebml v1.3.0 + libmatroska v1.4.0
Video
ID : 1
Format : AVC
Format/Info : Advanced Video Codec
Format profile : High@L4.1
Format settings, CABAC : Yes
Format settings, ReFrames : 5 frames
Codec ID : V_MPEG4/ISO/AVC
Duration : 2h 45mn
Bit rate : 1 650 Kbps
Width : 768 pixels
Height : 576 pixels
Display aspect ratio : 4:3
Frame rate mode : Constant
Frame rate : 25.000 fps
Color space : YUV
Chroma subsampling : 4:2:0
Bit depth : 8 bits
Scan type : Progressive
Bits/(Pixel*Frame) : 0.149
Stream size : 1.87 GiB (91%)
Writing library : x264 core 130 r2273 b3065e6
Encoding settings : cabac=1 / ref=5 / deblock=1:-2:-2 / analyse=0x3:0x111 / me=umh / subme=9 / psy=1 / psy_rd=0.00:0.10 / mixed_ref=1 / me_range=32 / chroma_me=1 / trellis=2 / 8x8dct=1 / cqm=0 / deadzone=21,11 / fast_pskip=0 / chroma_qp_offset=-1 / threads=6 / lookahead_threads=1 / sliced_threads=0 / nr=0 / decimate=1 / interlaced=0 / bluray_compat=0 / constrained_intra=0 / bframes=5 / b_pyramid=2 / b_adapt=0 / b_bias=0 / direct=1 / weightb=1 / open_gop=0 / weightp=2 / keyint=250 / keyint_min=25 / scenecut=40 / intra_refresh=0 / rc_lookahead=50 / rc=2pass / mbtree=1 / bitrate=1650 / ratetol=1.0 / qcomp=0.60 / qpmin=0 / qpmax=69 / qpstep=4 / cplxblur=20.0 / qblur=0.5 / ip_ratio=1.40 / aq=1:1.00
Default : Yes
Forced : No
Audio
ID : 2
Format : AC-3
Format/Info : Audio Coding 3
Mode extension : CM (complete main)
Format settings, Endianness : Big
Codec ID : A_AC3
Duration : 2h 45mn
Bit rate mode : Constant
Bit rate : 128 Kbps
Channel(s) : 2 channels
Channel positions : Front: L R
Sampling rate : 48.0 KHz
Bit depth : 16 bits
Compression mode : Lossy
Stream size : 152 MiB (7%)
Default : Yes
Forced : No



Релиз от: &



   Похожие торренты   Торрент   Размер 
В этой теме нет новых непрочитанных сообщений. Подводные лодки Кригсмарине 1939-1945. Справочник-определитель флотилий (2007) PDF

18 | 6

94.44 МБ

В этой теме нет новых непрочитанных сообщений. "Серые волки" адмирала Дёница / Grey Wolves / U-boats (2005) DVDRip

1 | 4

1.72 ГБ

В этой теме нет новых непрочитанных сообщений. Коллекция Оскар - Вестерны. Выпуск 3 [4 в 1] (1939-1945) DVD9

6 | 22

7.08 ГБ

В этой теме нет новых непрочитанных сообщений. Фотографии Bundesarchiv Bild, Russland (1939-1945) JPG by гаврила

4 | 3

22.2 МБ

В этой теме нет новых непрочитанных сообщений. Фотографии Bundesarchiv Bild, Russland -2 (1939-1945) JPG by гаврила

39 | 5

45.98 МБ

В этой теме нет новых непрочитанных сообщений. В.М. Черников (ред. сост.) - Боевая техника и оружие: 1939 - 1945 (2001) PDF

221 | 8

286.26 МБ

В этой теме нет новых непрочитанных сообщений. Эскадрильи Люфтваффе 1939-1945. Справочник-определитель самолетов (2007) PDF

40 | 7

143.33 МБ




Вы не можете начинать темы
Вы не можете отвечать на сообщения
Вы не можете редактировать свои сообщения
Вы не можете удалять свои сообщения
Вы не можете добавлять вложения

Перейти:  
Для Мосгорсуда, Роскомнадзора и рекламодателей: mosgorsud-torrent[собачка]yandex.ru
 Вход
ppkBB3cker v.2 © 2008-2014 @ PPK
[ Time : 0.039s | 17 Queries | GZIP : Off ]

cron