img image001 image001 image001 image001 image001 image001 image001 image001 image001 image001 image001 image001 image001 image001 image001

Planets Sun Sun Sun
Статистика раздачи
Автор: Снежана | Размер: 705.94 МБ | Добавлен: 12 авг 2013
Раздают: 13    Качают: 4
Скачать торрент
Скачать торрент
Описание торрента

СообщениеДобавлено: 12 авг 2013 


Инфомация о фильме
Название: Крылья России. Разведчики. Следящие с небес
Год выхода: 2007
Жанр: Документальный, история, вооружение, авиация
Режиссер: Константин Поляков
О фильме
Любопытство – не порок, а в условия войны или ее опасности – вещь необходимая. Проявление такого любопытства иначе называют проведением разведки. Воздушной, например. Какими чертами должен обладать самолет-разведчик? Он должен быть недосягаем для ПВО противника, значит летать ему нужно высоко. А в наше время, когда и на большой высоте могут достать, например, как Пауэрса, ракетой? Правильно, еще и быстро..
Страна: Россия
Студия: Студия «Крылья России»
Продолжительность: 00:52:00
Перевод: Оригинал
Файл
Формат: MKV
Качество: DVDRip-AVC
Видео: MPEG4 AVC 768 x 576, 25.000 fps, 1700 - 1955 Кбит/с
Звук: AC-3, 2 ch, 192 Кбит/с
Субтитры: Нет


General
Unique ID : 227589007603245273620687254887751794487 (0xAB380C68E664192B8CFD9B44FA68BF37)
Complete name : C:DownloadsKrilja Rossii.Razvedchiki.sledjashie s nebes.2007.DVDRip-AVC от -=HD-NET=-.mkv
Format : Matroska
Format version : Version 2
File size : 706 MiB
Duration : 50mn 28s
Overall bit rate : 1 955 Kbps
Encoded date : UTC 2013-08-01 16:46:20
Writing application : mkvmerge v6.1.0 ('Old Devil') built on Mar 4 2013 09:10:42
Writing library : libebml v1.3.0 + libmatroska v1.4.0
Video
ID : 1
Format : AVC
Format/Info : Advanced Video Codec
Format profile : High@L4.1
Format settings, CABAC : Yes
Format settings, ReFrames : 5 frames
Codec ID : V_MPEG4/ISO/AVC
Duration : 50mn 28s
Bit rate : 1 700 Kbps
Width : 768 pixels
Height : 576 pixels
Display aspect ratio : 4:3
Frame rate mode : Constant
Frame rate : 25.000 fps
Color space : YUV
Chroma subsampling : 4:2:0
Bit depth : 8 bits
Scan type : Progressive
Bits/(Pixel*Frame) : 0.154
Stream size : 599 MiB (85%)
Writing library : x264 core 130 r2273 b3065e6
Encoding settings : cabac=1 / ref=5 / deblock=1:-2:-2 / analyse=0x3:0x111 / me=umh / subme=9 / psy=1 / psy_rd=0.00:0.10 / mixed_ref=1 / me_range=32 / chroma_me=1 / trellis=2 / 8x8dct=1 / cqm=0 / deadzone=21,11 / fast_pskip=1 / chroma_qp_offset=-1 / threads=12 / lookahead_threads=1 / sliced_threads=0 / nr=0 / decimate=1 / interlaced=0 / bluray_compat=0 / constrained_intra=0 / bframes=5 / b_pyramid=2 / b_adapt=0 / b_bias=0 / direct=1 / weightb=1 / open_gop=0 / weightp=2 / keyint=250 / keyint_min=25 / scenecut=40 / intra_refresh=0 / rc_lookahead=50 / rc=2pass / mbtree=1 / bitrate=1700 / ratetol=1.0 / qcomp=0.60 / qpmin=0 / qpmax=69 / qpstep=4 / cplxblur=20.0 / qblur=0.5 / ip_ratio=1.40 / aq=1:1.00
Default : Yes
Forced : No
Audio
ID : 2
Format : AC-3
Format/Info : Audio Coding 3
Mode extension : CM (complete main)
Format settings, Endianness : Big
Codec ID : A_AC3
Duration : 50mn 28s
Bit rate mode : Constant
Bit rate : 192 Kbps
Channel(s) : 2 channels
Channel positions : Front: L R
Sampling rate : 48.0 KHz
Bit depth : 16 bits
Compression mode : Lossy
Stream size : 92.4 MiB (13%)
Default : Yes
Forced : No



Релиз от:



   Похожие торренты   Торрент   Размер 
В этой теме нет новых непрочитанных сообщений. Крылья России. Советские самолеты. Фронтовой бомбардировщик Як-28 (2007) DVDRip-AVC от Тorrent-Хzona

12 | 2

1010.23 МБ

В этой теме нет новых непрочитанных сообщений. Крылья России. Общее небо. 100 лет ВВС России (2012) DVDRip-AVC от Тorrent-Хzona

8 | 12

1.27 ГБ

В этой теме нет новых непрочитанных сообщений. Крылья России [Серии 9-12 из 18] (2008) DVDRip

3 | 13

2.73 ГБ

В этой теме нет новых непрочитанных сообщений. Крылья России [Серии 16-18 из 18] (2008) DVDRip

3 | 2

2.05 ГБ

В этой теме нет новых непрочитанных сообщений. Крылья России [01-18 из 18] (2008) DVDRip от ExKinoRay

91 | 23

12.37 ГБ

В этой теме нет новых непрочитанных сообщений. Крылья России [Серии 13-15 из 18] (2008) DVDRip

3 | 1

2.05 ГБ

В этой теме нет новых непрочитанных сообщений. Крылья России [Серии 5-8 из 18] (2008) DVDRip

3 | 1

2.73 ГБ




Вы не можете начинать темы
Вы не можете отвечать на сообщения
Вы не можете редактировать свои сообщения
Вы не можете удалять свои сообщения
Вы не можете добавлять вложения

Перейти:  
Для Мосгорсуда, Роскомнадзора и рекламодателей: mosgorsud-torrent[собачка]yandex.ru
 Вход
ppkBB3cker v.2 © 2008-2014 @ PPK
[ Time : 6.150s | 14 Queries | GZIP : Off ]

Торрент трекер RUTOR.IN, Не можете зайти на rutor.org? Какой новый адрес рутор? Какое зеркало рутор? Не работает rutor.org и зеркала? Тогда наш торрент специально для вас. Rutor.in неофициальное зеркало rutor. В случае если у Вас заблокирован rutor или вдруг Вы не можете на него зайти, то Вы без труда сможете скачать бесплатно и без рекламы последние новинки кино, игр, сериалов и прочего у нас, на Rutor.in. Не нужно использовать прокси, чтобы зайти на рутор, достаточно воспользоваться нашим ресурсом. Все новые фильмы, игры, сериалы, книги и музыка за 2013 и 2014 годы через торрент бесплатно. Скачивайте фильмы в хорошем качестве, игры для пк, xbox, playstation без регистрации. У нас вы найдете новые Зарубежные сериалы и Русские сериалы 2013, 2014, 2015 годов. Оставайтесь с нами, качайте любимые фильмы, игры, сериалы, книги и музыку.