img image001 image001 image001 image001 image001 image001 image001 image001 image001 image001 image001 image001 image001 image001 image001

Planets Sun Sun Sun
Статистика раздачи
Автор: Снежана | Размер: 409.93 МБ | Добавлен: 12 авг 2013
Раздают: 8    Качают: 2
Скачать торрент
Скачать торрент
Описание торрента

СообщениеДобавлено: 12 авг 2013 


Инфомация о фильме
Название: Душа Мира
Оригинальное название: Anima Mundi
Год выхода: 1992
Жанр: Документальный
Режиссер: Годфри Режжио
Музыка: Филип Гласс
О фильме
Этот фильм прославляет загадочный и прекрасный мир природы при помощи удивительного сочетания цвета и музыки. Живописные картины летящих птиц и зебр, мчащихся галопом, горделивые страусы и суетящиеся насекомые, клетки, размножающиеся миллионами, напряжённые крупные планы диких животных и ландшафты, полные величия и спокойствия. Единый и гармоничный мир, находящийся в непрерывном движении, вдруг замирает в немом ожидании перед человеком..
Страна: США
Продолжительность: 00:28:00
Перевод: Не требуется
Файл
Формат: MKV
Качество: DVDRip-AVC
Видео: MPEG4 AVC 1024 x 576, 29.970 fps, 1700 - 1923 Кбит/с
Звук: AC-3, 2 ch, 192 Кбит/с
Субтитры: Нет


General
Unique ID : 214705351113168969615351375169267317002 (0xA186BF1A28ABFD9B86DDFA556FEE390A)
Complete name : C:DownloadsAnima Mundi.1992.DVDRip-AVC от -=HD-NET=-.mkv
Format : Matroska
Format version : Version 2
File size : 410 MiB
Duration : 29mn 47s
Overall bit rate : 1 923 Kbps
Encoded date : UTC 2013-07-20 16:30:34
Writing application : mkvmerge v6.1.0 ('Old Devil') built on Mar 4 2013 09:10:42
Writing library : libebml v1.3.0 + libmatroska v1.4.0
Video
ID : 1
Format : AVC
Format/Info : Advanced Video Codec
Format profile : High@L4.1
Format settings, CABAC : Yes
Format settings, ReFrames : 5 frames
Codec ID : V_MPEG4/ISO/AVC
Duration : 29mn 47s
Bit rate : 1 700 Kbps
Width : 1 024 pixels
Height : 576 pixels
Display aspect ratio : 16:9
Frame rate mode : Constant
Frame rate : 29.970 fps
Color space : YUV
Chroma subsampling : 4:2:0
Bit depth : 8 bits
Scan type : Progressive
Bits/(Pixel*Frame) : 0.096
Stream size : 354 MiB (86%)
Writing library : x264 core 130 r2273 b3065e6
Encoding settings : cabac=1 / ref=5 / deblock=1:-2:-2 / analyse=0x3:0x111 / me=umh / subme=9 / psy=1 / psy_rd=0.00:0.10 / mixed_ref=1 / me_range=32 / chroma_me=1 / trellis=2 / 8x8dct=1 / cqm=0 / deadzone=21,11 / fast_pskip=1 / chroma_qp_offset=-1 / threads=12 / lookahead_threads=1 / sliced_threads=0 / nr=0 / decimate=1 / interlaced=0 / bluray_compat=0 / constrained_intra=0 / bframes=5 / b_pyramid=2 / b_adapt=0 / b_bias=0 / direct=1 / weightb=1 / open_gop=0 / weightp=2 / keyint=250 / keyint_min=25 / scenecut=40 / intra_refresh=0 / rc_lookahead=50 / rc=2pass / mbtree=1 / bitrate=1700 / ratetol=1.0 / qcomp=0.60 / qpmin=0 / qpmax=69 / qpstep=4 / cplxblur=20.0 / qblur=0.5 / ip_ratio=1.40 / aq=1:1.00
Default : Yes
Forced : No
Audio
ID : 2
Format : AC-3
Format/Info : Audio Coding 3
Mode extension : CM (complete main)
Format settings, Endianness : Big
Codec ID : A_AC3
Duration : 29mn 47s
Bit rate mode : Constant
Bit rate : 192 Kbps
Channel(s) : 2 channels
Channel positions : Front: L R
Sampling rate : 48.0 KHz
Bit depth : 16 bits
Compression mode : Lossy
Stream size : 47.7 MiB (12%)
Default : Yes
Forced : No



Релиз от:



   Похожие торренты   Торрент   Размер 
В этой теме нет новых непрочитанных сообщений. Душа Мира / Anima Mundi (1992) DVDRip

0 | 2

341.48 МБ

В этой теме нет новых непрочитанных сообщений. Потерянная душа / Anima persa (1977) DVDRip от Кинорадиомагия

57 | 22

1.37 ГБ

В этой теме нет новых непрочитанных сообщений. Потерянная душа / Anima persa / Lost Soul (1977) DVDRip

34 | 22

1.45 ГБ

В этой теме нет новых непрочитанных сообщений. Молитва во имя мира / Gloria mundi (1976) DVDRip | A

67 | 3

1.46 ГБ

В этой теме нет новых непрочитанных сообщений. Лабиринты мира. Расколотая душа. Коллекционное издание (2014) PC

977 | 59

1.55 ГБ

В этой теме нет новых непрочитанных сообщений. Сабина / Prendimi l'anima (2002) DVDRip от Киномагия

37 | 25

1.12 ГБ

В этой теме нет новых непрочитанных сообщений. Samael - Lux Mundi (2011) MP3

208 | 7

112.4 МБ




Вы не можете начинать темы
Вы не можете отвечать на сообщения
Вы не можете редактировать свои сообщения
Вы не можете удалять свои сообщения
Вы не можете добавлять вложения

Перейти:  
Для Мосгорсуда, Роскомнадзора и рекламодателей: mosgorsud-torrent[собачка]yandex.ru
 Вход
ppkBB3cker v.2 © 2008-2014 @ PPK
[ Time : 0.059s | 15 Queries | GZIP : Off ]

Торрент трекер RUTOR.IN, Не можете зайти на rutor.org? Какой новый адрес рутор? Какое зеркало рутор? Не работает rutor.org и зеркала? Тогда наш торрент специально для вас. Rutor.in неофициальное зеркало rutor. В случае если у Вас заблокирован rutor или вдруг Вы не можете на него зайти, то Вы без труда сможете скачать бесплатно и без рекламы последние новинки кино, игр, сериалов и прочего у нас, на Rutor.in. Не нужно использовать прокси, чтобы зайти на рутор, достаточно воспользоваться нашим ресурсом. Все новые фильмы, игры, сериалы, книги и музыка за 2013 и 2014 годы через торрент бесплатно. Скачивайте фильмы в хорошем качестве, игры для пк, xbox, playstation без регистрации. У нас вы найдете новые Зарубежные сериалы и Русские сериалы 2013, 2014, 2015 годов. Оставайтесь с нами, качайте любимые фильмы, игры, сериалы, книги и музыку.