img image001 image001 image001 image001 image001 image001 image001 image001 image001 image001 image001 image001 image001 image001 image001

Planets Sun Sun Sun
Статистика раздачи
Автор: Снежана | Размер: 2.66 ГБ | Добавлен: 11 авг 2013
Раздают: 26    Качают: 4
Скачать торрент
Скачать торрент
Описание торрента

СообщениеДобавлено: 11 авг 2013 

#77

Информация о фильме

Год выпуска: 2012
Страна: США
Жанр: Документальный
Продолжительность: 01:13:46
Перевод: Профессиональный (дублированный)
Студия озвучивания: Saint Sound
Русские субтитры: нет

Режиссер: Michael J. Murphy

Всем кто интересуется документальной информацией и информацией для разума и ума и своего совершенствования. Рекомендую посетить мои раздачи:
Описание: Фильм о химиотрассах и химтрейлах, о том что начали распылять некоторые самолеты у нас над головами после открытия воздушного пространства...
Есть конденсаторные следы которые оставляют самолеты, такие следы исчезают в течении нескольких минут, в этих следах нет нечего опасного.
А есть химические следы, которые остаются на много часов в небе и образуют большие облака, иногда в таких облаках возникает что то типа радуги... Об этих химических следах и речь в этом фильме.

Этот фильм - продолжение документального фильма "Что в мире Они распылают?", который информировал миллионы людей о разрушающем воздействии химиотрасс и других инженерно-геологических программ. В результате, по всему миру создаются движения для расследования этих преступлений, и многие заинтересованные граждане принимают меры. Когда люди осознают, что происходит, они задают ещё более важный вопрос - почему это происходит. Майкл Дж. Мерфи, автор и сопродюсер «Что в мире Они Распыляют?", вместе с Барри Кольски, выпустили фильм "Зачем в мире Они распыляют?", чтобы ответить на этот вопрос.

Будьте готовы узнать о:
Влиянии геоинженерных программ на окружающую среду и здоровье человека.
Как геоинженерия может быть использована для управления нашей погодой.
Какие отрасли получают выгоду от геоинженерных программ.
Как распыление химиотрасс влияет на вас, вашу семью и будущее человечества.

В этом документальном фильме вы узнаете, как распыляемые в нашем небе аэрозоли используются в сочетании с другими технологиями для управления нашей погодой. Геоинженеры утверждают, что они работают только для смягчения в настоящее время широко развенчанной теории глобального потепления. Очевидным является то, что химиотрассы / геоинженерия может быть использована как способ консолидации огромного количества как денежной, так и политической власти в руках технократических элит. Некоторые международные корпорации теперь могут использовать управление погодой, чтобы получить власть над природными системами Земли. Это, конечно, делается за счёт всего живого на планете. Зачем в мире Они распыляют - это фильм, который должен видеть каждый, и он произведёт революцию в экологическом движении.

качество: DVDRip
формат: AVI
Видео: AVC at 4 952 Kbps 1280 x 720 (1.778) at 29.970 fps
Аудио: MPEG Audio at 192 Kbps 2 channels, 44.1 KHz
General
Why in the World are They Spraying. (Химиотрассы , Химтрейлы) [2012].avi
Формат : AVI
Формат/Информация : Audio Video Interleave
Профиль формата : OpenDML
Размер файла : 2.66 GiB
Продолжительность : 1h 13mn
Режим общего битрейта : Variable
Общий поток : 5 156 Kbps
Программа кодирования : Lavf51.12.1

Video
Идентификатор : 0
Формат : AVC
Формат/Информация : Advanced Video Codec
Профиль формата : Baseline@L3.1
Параметр CABAC формата : No
Параметр ReFrames формата : 1 frame
Параметр GOP формата : M=1, N=12
Идентификатор кодека : H264
Продолжительность : 1h 13mn
Вид битрейта : Variable
Битрейт : 4 952 Kbps
Максимальный битрейт : 6 000 Kbps
Ширина : 1 280 pixels
Высота : 720 pixels
Соотношение сторон : 16:9
Частота кадров : 29.970 fps
Частота кадров в оригинале : 24.000 fps
Цветовое пространство : YUV
Субдискретизация насыщенности : 4:2:0
Битовая глубина : 8 bits
Тип развёртки : Progressive
Бит/(Пиксели*Кадры) : 0.179
Размер потока : 2.55 GiB (96%)

Audio
Идентификатор : 1
Формат : MPEG Audio
Версия формата : Version 1
Профиль формата : Layer 3
Режим : Joint stereo
Расширение режима : MS Stereo
Идентификатор кодека : 55
Идентификатор кодека/Подсказка : MP3
Продолжительность : 1h 13mn
Вид битрейта : Constant
Битрейт : 192 Kbps
Каналы : 2 channels
Частота : 44.1 KHz
Метод сжатия : Lossy
Размер потока : 101 MiB (4%)
Выравнивание : Aligned on interleaves
Продолжительность промежутка : 26 ms (0.78 video frame)
Время предзагрузки промежутка : 26 ms
Библиотека кодирования : LAME3.97







   Похожие торренты   Торрент   Размер 
В этой теме нет новых непрочитанных сообщений. Зачем в мире Они распыляют? / Why in the World are They Spraying? (2012) DVDRip

6 | 2

1.66 ГБ

В этой теме нет новых непрочитанных сообщений. Самый сильный человек в мире / The Strongest Man in the World (1975) DVDRip | Sub

18 | 2

701.05 МБ

В этой теме нет новых непрочитанных сообщений. Величайший любовник в мире / The World's Greatest Lover (1977) DVDRip от Brazzass

14 | 7

1.46 ГБ

В этой теме нет новых непрочитанных сообщений. MS-13: Самая жестокая банда в мире / World's Most Dangerous Gang (2005) DVDRip

103 | 7

661.49 МБ

В этой теме нет новых непрочитанных сообщений. Самые сексуальные обнаженные женщины в мире / World's Sexiest Nude Women (2007) DVDRip

3255 | 379

699.26 МБ

В этой теме нет новых непрочитанных сообщений. ABC: Самое необычное животное в мире. Утконос / ABC: Platypus. World's Strangest Animal (2003) DVDRip

6 | 1

746.86 МБ

В этой теме нет новых непрочитанных сообщений. BBC: Брачные игры в мире животных / Battle of the sexes in the animal world [01-06 из 06] (1998-1999) DVDRip от ExKinoRay

9 | 4

2.06 ГБ




Вы не можете начинать темы
Вы не можете отвечать на сообщения
Вы не можете редактировать свои сообщения
Вы не можете удалять свои сообщения
Вы не можете добавлять вложения

Перейти:  
Для Мосгорсуда, Роскомнадзора и рекламодателей: mosgorsud-torrent[собачка]yandex.ru
 Вход
ppkBB3cker v.2 © 2008-2014 @ PPK
[ Time : 0.038s | 15 Queries | GZIP : Off ]

cron