img image001 image001 image001 image001 image001 image001 image001 image001 image001 image001 image001 image001 image001 image001 image001

Planets Sun Sun Sun
Статистика раздачи
Автор: PriZraK | Размер: 3.7 ГБ | Добавлен: 15 фев 2014
Раздают: 14    Качают: 4
Скачать торрент
Скачать торрент
Описание торрента

СообщениеДобавлено: 15 фев 2014 




Информация о фильме
Название: Семнадцать мгновений весны. Последний дубль ...
Год выхода: 2013
Жанр: документальное кино
Режиссер: Сергей Кожевников
В ролях: Олег Табаков, Василий Лановой, Вячеслава Шалевича, Элеонора Шашкова, Светлана Светличная, Алексей Сафонов, режиссер Сергей Соловьев, композитор Максим Дунаевский, ветеран спецслужб Михаил Любимов, историк Константин Залесский.

О фильме:
40 лет назад - 11 августа 1973 года вышел телесериал "Семнадцать мгновений весны".
11 августа 1973 года. 19 часов 30 минут. Штирлиц едет на работу. По той же дороге, на такой же машине, спустя 40 лет со дня съёмок этой сцены, едет ведущий фильма… Малоизвестные подробности о съёмках знаменитой киноленты - основа фильма. Вместе со съемочной группой зритель пройдет по местам боевой славы Отто фон Штирлица. Узнает, как сегодня выглядит его дом в предместье Берлина. Увидит улицы, по которым ходил любимый герой.
Одна такая прогулка закончилась забавным эпизодом. В перерыве между съемками, Вячеслав Тихонов шёл по Берлину– прямо в нацистской форме, чтобы не терять времени на переодевание. Прохожие поначалу шарахались от штандартенфюрера СС. Но потом к Тихонову подошли два, особо бдительных, гражданина и хотели было препроводить его в полицейский участок. Когда недоразумение утряслось, один из них попросил примерить мундир и фуражку со словами – "всё, как настоящее!"
Зритель впервые узнает, кого режиссер Татьяна Лиознова видела в роли Штирлица. Поначалу кандидатура Вячеслава Тихонова даже не рассматривалась. В чем упрекают создателей картины историки. Из-за чего Иосиф Кобзон ругался с Лиозновой, и поначалу не хотел исполнять песни сериала? Почему Василий Лановой так и не попробовал отборного французского коньяка, который прислал ему настоящий генерал Вольф, а Вячеслав Тихонов хотел наотрез отказаться от главной роли своей жизни? Неизвестные истории, которые остались за кадром народного сериала, иногда смешные, иногда трогательные, прозвучат в воспоминаниях Олега Табакова, Василия Ланового, Вячеслава Шалевича, Элеоноры Шашковой, Светланы Светличной, Алексея Сафонова, режиссера Сергея Соловьева, композитора Максима Дунаевского, ветерана спецслужб Михаила Любимова, историка Константина Залесского.


Страна: Россия
Студия: ТК Останкино
Продолжительность: 00:52:13
Язык: русский

Файл
Кодек: AVC/H.264
Качество: HDTV 1080i
Видео: 1920x1080 (16:9), 25.000 fps, 9470 Кбит/сек
Звук: Mp-2, 48000 Hz, 192 Кбит/сек, 2 ch

Видео
Идентификатор : 305 (0x131)
Идентификатор меню : 1 (0x1)
Формат : AVC
Формат/Информация : Advanced Video Codec
Профиль формата : High@L4.0
Параметр CABAC формата : Да
Параметр ReFrames формата : 3 кадра
Идентификатор кодека : 27
Продолжительность : 52 м.
Битрейт : 9470 Кбит/сек
Ширина : 1920 пикселей
Высота : 1080 пикселей
Соотношение сторон : 16:9
Частота кадров : 25,000 кадров/сек
Стандарт вещания : Component
Цветовое пространство : YUV
Субдискретизация насыщенности : 4:2:0
Битовая глубина : 8 бит
Тип развёртки : Чересстрочная
Порядок развёртки : Верхнее поле первое
Бит/(Пиксели*Кадры) : 0.183
Размер потока : 3,44 Гбайт (93%)
Основные цвета : BT.709
Характеристики трансфера : BT.709
Коэффициенты матрицы : BT.709
Аудио
Идентификатор : 405 (0x195)
Идентификатор меню : 1 (0x1)
Формат : MPEG Audio
Версия формата : Version 1
Профиль формата : Layer 2
Идентификатор кодека : 3
Продолжительность : 52 м.
Вид битрейта : Постоянный
Битрейт : 192 Кбит/сек
Каналы : 2 канала
Частота : 48,0 КГц
Метод сжатия : С потерями
Размер потока : 71,5 Мбайт (2%)
Язык : Russian




Релиз от: Rmk80disco



   Похожие торренты   Торрент   Размер 
В этой теме нет новых непрочитанных сообщений. Семнадцать мгновений весны. Последний дубль (2013) HDTVRip-AVC от -=HD-NET=-

7 | 6

742.62 МБ

В этой теме нет новых непрочитанных сообщений. Семнадцать мгновений весны (1973) DVDRip

477 | 140

8.21 ГБ

В этой теме нет новых непрочитанных сообщений. Семнадцать мгновений весны (1973) DVDRip-AVC

399 | 139

12.87 ГБ

В этой теме нет новых непрочитанных сообщений. Семнадцать мгновений весны (1973) SATRip | Цветной | КПК

266 | 73

3.27 ГБ

В этой теме нет новых непрочитанных сообщений. Семнадцать мгновений весны (1973) DVDRip by гаврила

113 | 9

12.83 ГБ

В этой теме нет новых непрочитанных сообщений. Семенов Юлиан - Семнадцать мгновений весны (2007) MP3

41 | 7

154.5 МБ

В этой теме нет новых непрочитанных сообщений. OST. Микаэл Таривердиев - Семнадцать мгновений весны (2001) MP3

4 | 4

104.53 МБ




Вы не можете начинать темы
Вы не можете отвечать на сообщения
Вы не можете редактировать свои сообщения
Вы не можете удалять свои сообщения
Вы не можете добавлять вложения

Перейти:  
Для Мосгорсуда, Роскомнадзора и рекламодателей: mosgorsud-torrent[собачка]yandex.ru
 Вход
ppkBB3cker v.2 © 2008-2014 @ PPK
[ Time : 0.047s | 14 Queries | GZIP : On ]

Торрент трекер RUTOR.IN, Не можете зайти на rutor.org? Какой новый адрес рутор? Какое зеркало рутор? Не работает rutor.org и зеркала? Тогда наш торрент специально для вас. Rutor.in неофициальное зеркало rutor. В случае если у Вас заблокирован rutor или вдруг Вы не можете на него зайти, то Вы без труда сможете скачать бесплатно и без рекламы последние новинки кино, игр, сериалов и прочего у нас, на Rutor.in. Не нужно использовать прокси, чтобы зайти на рутор, достаточно воспользоваться нашим ресурсом. Все новые фильмы, игры, сериалы, книги и музыка за 2013 и 2014 годы через торрент бесплатно. Скачивайте фильмы в хорошем качестве, игры для пк, xbox, playstation без регистрации. У нас вы найдете новые Зарубежные сериалы и Русские сериалы 2013, 2014, 2015 годов. Оставайтесь с нами, качайте любимые фильмы, игры, сериалы, книги и музыку.