img image001 image001 image001 image001 image001 image001 image001 image001 image001 image001 image001 image001 image001 image001 image001

Planets Sun Sun Sun
Статистика раздачи
Автор: PriZraK | Размер: 606.03 МБ | Добавлен: 15 фев 2014
Раздают: 0    Качают: 2
Скачать торрент
Скачать торрент
Описание торрента

СообщениеДобавлено: 15 фев 2014 



Инфомация о фильме
Название: Discovery: Поймать лжеца
Оригинальное название: Discovery: Catch A Liar
Год выхода: 2009
Жанр: Документальный
Режиссер: Ненси Гимброн, Лаура Верклан Армстронг
О фильме
В мире лжи и высокого риска. выявление правды может стать вопросом жизни и смерти. События 11 сентября в США и террористические акты в других странах показали, что спецслужбам крайне необходимы технологии, чтобы защитить инфраструктуру и жизнь граждан. Может ли новейшая техника поймать лжеца? Или лгут все до единого? Поиск идеального детектора - это сложная наука о том, как поймать лжеца!
Страна: США
Студия: Flight 33 Productions, Discovery Communications, LLC
Продолжительность: 00:43:54
Перевод: Профессиональный(одноголосый, закадровый)
Файл
Формат: MKV
Качество: DVDRip-AVC
Видео: MPEG4 AVC, 1024 x 576, 25.000 fps, 1800 - 1930 Кбит/с
Звук: AC-3, 2 ch, 128 Кбит/с
Субтитры: Нет

General
Unique ID : 227180242306784426010163573200734323619 (0xAAE952B982E731C6BDBF45717CB303A3)
Complete name : D:DownloadsPojmat.lzeca.2009.x264.HDTVRip.(AVC).by.HD-NET.mkv
Format : Matroska
Format version : Version 2
File size : 606 MiB
Duration : 43mn 54s
Overall bit rate : 1 930 Kbps
Encoded date : UTC 2013-08-06 04:46:00
Writing application : mkvmerge v6.1.0 ('Old Devil') built on Mar 4 2013 09:10:42
Writing library : libebml v1.3.0 + libmatroska v1.4.0
Video
ID : 1
Format : AVC
Format/Info : Advanced Video Codec
Format profile : High@L4.1
Format settings, CABAC : Yes
Format settings, ReFrames : 5 frames
Codec ID : V_MPEG4/ISO/AVC
Duration : 43mn 54s
Bit rate : 1 800 Kbps
Width : 1 024 pixels
Height : 576 pixels
Display aspect ratio : 16:9
Frame rate mode : Constant
Frame rate : 25.000 fps
Color space : YUV
Chroma subsampling : 4:2:0
Bit depth : 8 bits
Scan type : Progressive
Bits/(Pixel*Frame) : 0.122
Stream size : 554 MiB (91%)
Writing library : x264 core 130 r2273 b3065e6
Encoding settings : cabac=1 / ref=5 / deblock=1:-2:-2 / analyse=0x3:0x111 / me=umh / subme=9 / psy=1 / psy_rd=0.00:0.10 / mixed_ref=1 / me_range=32 / chroma_me=1 / trellis=2 / 8x8dct=1 / cqm=0 / deadzone=21,11 / fast_pskip=0 / chroma_qp_offset=-1 / threads=6 / lookahead_threads=1 / sliced_threads=0 / nr=0 / decimate=1 / interlaced=0 / bluray_compat=0 / constrained_intra=0 / bframes=5 / b_pyramid=2 / b_adapt=0 / b_bias=0 / direct=1 / weightb=1 / open_gop=0 / weightp=2 / keyint=250 / keyint_min=25 / scenecut=40 / intra_refresh=0 / rc_lookahead=50 / rc=2pass / mbtree=1 / bitrate=1800 / ratetol=1.0 / qcomp=0.60 / qpmin=0 / qpmax=69 / qpstep=4 / cplxblur=20.0 / qblur=0.5 / ip_ratio=1.40 / aq=1:1.00
Default : Yes
Forced : No
Audio
ID : 2
Format : AC-3
Format/Info : Audio Coding 3
Mode extension : CM (complete main)
Format settings, Endianness : Big
Codec ID : A_AC3
Duration : 43mn 54s
Bit rate mode : Constant
Bit rate : 128 Kbps
Channel(s) : 2 channels
Channel positions : Front: L R
Sampling rate : 48.0 KHz
Bit depth : 16 bits
Compression mode : Lossy
Stream size : 40.2 MiB (7%)
Title : pojmat.lzheca
Language : Russian
Default : Yes
Forced : Yes



Релиз от: &



   Похожие торренты   Торрент   Размер 
В этой теме нет новых непрочитанных сообщений. Discovery: Новый Большой взрыв / Discovery: The New Big Bang (2009) HDTVRip от ExKinoRay

8 | 3

702.67 МБ

В этой теме нет новых непрочитанных сообщений. Discovery: Новый Большой взрыв / Discovery: The New Big Bang (2009) HDTVRip (720p)

7 | 2

1.13 ГБ

В этой теме нет новых непрочитанных сообщений. Discovery. Стивен Хокинг и Теория Всего / Discovery. Stephen Hawking and the Theory of Everything (2009) HDTVRip 720p

48 | 5

1.31 ГБ

В этой теме нет новых непрочитанных сообщений. Discovery. Солнце / Discovery. The Sun (2009) HDTVRip от GeneralFilm | P1

296 | 16

575.02 МБ

В этой теме нет новых непрочитанных сообщений. Смертельный улов / Discovery: Deadliest Catch [S10] (2014) HDTVRip от HitWay | P2

21 | 32

7.41 ГБ

В этой теме нет новых непрочитанных сообщений. Смертельный улов / Discovery: Deadliest Catch [S10] (2014) HDTVRip от HitWay | P2

21 | 16

6.88 ГБ

В этой теме нет новых непрочитанных сообщений. Поймать вора / To Catch a Thief (1955) HDTVRip

12 | 1

1.44 ГБ




Вы не можете начинать темы
Вы не можете отвечать на сообщения
Вы не можете редактировать свои сообщения
Вы не можете удалять свои сообщения
Вы не можете добавлять вложения

Перейти:  
Для Мосгорсуда, Роскомнадзора и рекламодателей: mosgorsud-torrent[собачка]yandex.ru
 Вход
ppkBB3cker v.2 © 2008-2014 @ PPK
[ Time : 0.027s | 14 Queries | GZIP : Off ]

Торрент трекер RUTOR.IN, Не можете зайти на rutor.org? Какой новый адрес рутор? Какое зеркало рутор? Не работает rutor.org и зеркала? Тогда наш торрент специально для вас. Rutor.in неофициальное зеркало rutor. В случае если у Вас заблокирован rutor или вдруг Вы не можете на него зайти, то Вы без труда сможете скачать бесплатно и без рекламы последние новинки кино, игр, сериалов и прочего у нас, на Rutor.in. Не нужно использовать прокси, чтобы зайти на рутор, достаточно воспользоваться нашим ресурсом. Все новые фильмы, игры, сериалы, книги и музыка за 2013 и 2014 годы через торрент бесплатно. Скачивайте фильмы в хорошем качестве, игры для пк, xbox, playstation без регистрации. У нас вы найдете новые Зарубежные сериалы и Русские сериалы 2013, 2014, 2015 годов. Оставайтесь с нами, качайте любимые фильмы, игры, сериалы, книги и музыку.