img image001 image001 image001 image001 image001 image001 image001 image001 image001 image001 image001 image001 image001 image001 image001

Planets Sun Sun Sun
Статистика раздачи
Автор: PriZraK | Размер: 6.17 ГБ | Добавлен: 15 фев 2014
Раздают: 84    Качают: 17
Скачать торрент
Скачать торрент
Описание торрента

СообщениеДобавлено: 15 фев 2014 




Информация о фильме
Название: Камасутра в трёхмерном изображении
Оригинальное название: Kama Sutra in 3D
Год выхода: 1997
Жанр: эротика
Режиссер: Шелдон Гринберг

О фильме:
Всё, что Вы хотите знать о сексе - трактат, написанный более двух тысяч лет назад. Это мудрость самого могущественного и деликатного из искусств, труд о даре любви, о величайшем наслаждении, которое вы можете подарить любимому человеку. Данная видеоэнциклопедия интимной жизни подготовлена ведущими специалистами Лондонского Интститута Сексуальности Человека, фильм призван открыть современным мужчинам различные способы удовлетворения женщины. В основе программы результаты многочисленных анонимных опросов. Добавьте к полученному опыту свое воображение и женщины искренне отблагодарят Вас за полученное наслаждение.

В данном DVD использован Эффект Пульфриха
Хотя эта технология может использоваться для получения хороших пространственных картин, она, строго говоря, не является 3D-видением, поскольку не использует разные картинки для правого и левого глаз.
Эффект Пульфриха (Pulfrich) - это оптическая иллюзия, которая базируется на том факте, что мозг чуть дольше распознаёт тёмные оптические раздражители, чем светлые.
Суть при записи с использованием эффекта Пульфриха состоит в том, что либо снимаемый объект (человек, животное, машина и т.д.), либо камера непрерывно движутся в определённом направлении.
Секрет очков, использующих эффект Пульфриха, заключается в том, что одно стекло затемнено. Хотя оба глаза видят одну и ту же картинку, "затемнённый" глаз передаёт картинку в мозг чуть позже. Мозг "придумывает" соответствующую информацию о глубине, которой на самом деле нет.
Но когда движение прекращается, то видимыми становятся только два измерения - даже с 3D-очками!
Что интересно, вы получаете действительное пространственное впечатление с 3D-очками - в то время как наблюдатель без очков видит всё в нормальном 2D. Такое не всегда возможно с использованием других 3D-технологий.

Страна: Великобритания
Студия: Shoval Film Production
Продолжительность: 150 мин.
Перевод: профессиональный, двухголосый

Файл
Кодек: MPEG2
Качество: DVD9
Видео: PAL 4:3 (720x576) VBR 5779 Kbps
Звук: Dolby AC3, 3 ch, 48 KHz, 192 Kbps
Субтитры: отсутствуют

General
Complete name : D:KAMA SUTRA 3DVIDEO_TSVTS_01_1.VOB
Format : MPEG-PS
File size : 1 024 MiB
Duration : 23mn 29s
Overall bit rate mode : Variable
Overall bit rate : 6 093 Kbps

Video
ID : 224 (0xE0)
Format : MPEG Video
Format version : Version 2
Format profile : Main@Main
Format settings, BVOP : No
Format settings, Matrix : Default
Format settings, GOP : M=3, N=13
Duration : 23mn 29s
Bit rate mode : Variable
Bit rate : 5 779 Kbps
Maximum bit rate : 8 300 Kbps
Width : 720 pixels
Height : 576 pixels
Display aspect ratio : 4:3
Frame rate : 25.000 fps
Standard : PAL
Color space : YUV
Chroma subsampling : 4:2:0
Bit depth : 8 bits
Scan type : Interlaced
Scan order : Top Field First
Compression mode : Lossy
Bits/(Pixel*Frame) : 0.557
Time code of first frame : 01:00:00:00
Time code source : Group of pictures header
Stream size : 971 MiB (95%)
Color primaries : BT.601 PAL
Transfer characteristics : BT.470 System B, BT.470 System G
Matrix coefficients : BT.601

Audio
ID : 189 (0xBD)-128 (0x80)
Format : AC-3
Format/Info : Audio Coding 3
Mode extension : CM (complete main)
Format settings, Endianness : Big
Muxing mode : DVD-Video
Duration : 23mn 29s
Bit rate mode : Constant
Bit rate : 192 Kbps
Channel count : 3 channels
Channel positions : Front: L R, LFE
Sampling rate : 48.0 KHz
Bit depth : 16 bits
Compression mode : Lossy
Stream size : 32.3 MiB (3%)

Menu




   Похожие торренты   Торрент   Размер 
В этой теме нет новых непрочитанных сообщений. Камасутра в трёхмерном изображении / Kama Sutra in 3D (1997) DVDRip

303 | 27

2.44 ГБ

В этой теме нет новых непрочитанных сообщений. Камасутра. Секреты любви / Kama-Sutra - Les secrets de l'art amoureux (2005) IPTVRip от Files-x | P

175 | 22

1.22 ГБ

В этой теме нет новых непрочитанных сообщений. Камасутра - Самые соблазнительные сексуальные позиции / Kama Sutra - Seductive Sex Positions (2004) DVDRip

369 | 27

671.96 МБ

В этой теме нет новых непрочитанных сообщений. Камасутра - позиции цветущего сада / Kama Sutra - positions of a blossoming garden (2005) DVDRip-AVC

184 | 10

696.02 МБ

В этой теме нет новых непрочитанных сообщений. Новая Камасутра: Позиции Цветущего сада / Kama Sutra - positions of a blossoming garden (2005) DVDRip от ExKinoRay

348 | 23

753.84 МБ

В этой теме нет новых непрочитанных сообщений. VA - KamaSutra - Kama Sutra Erotic Massage (2011) Mp3

34 | 4

291.77 МБ

В этой теме нет новых непрочитанных сообщений. Кама Сутра: История любви / Kama Sutra: A Tale of Love (1996) DVDRip

48 | 20

2.17 ГБ




Вы не можете начинать темы
Вы не можете отвечать на сообщения
Вы не можете редактировать свои сообщения
Вы не можете удалять свои сообщения
Вы не можете добавлять вложения

Перейти:  
Для Мосгорсуда, Роскомнадзора и рекламодателей: mosgorsud-torrent[собачка]yandex.ru
 Вход
ppkBB3cker v.2 © 2008-2014 @ PPK
[ Time : 0.029s | 16 Queries | GZIP : Off ]

cron