img image001 image001 image001 image001 image001 image001 image001 image001 image001 image001 image001 image001 image001 image001 image001

Planets Sun Sun Sun
Статистика раздачи
Автор: PriZraK | Размер: 806.7 МБ | Добавлен: 15 фев 2014
Раздают: 61    Качают: 12
Скачать торрент
Скачать торрент
Описание торрента

СообщениеДобавлено: 15 фев 2014 



Название: Красота природы. Живая вода
Жанр: Relax
Год выхода: 2004

О фильме:
Неповторимые пейзажи, очаровательные водяные каскады, природные водопад, прекрасные кристаллы - все проявления одной из могущественнейших природных стихий - воды - Вы увидите в этой программе.
Ощущение силы воздействия воды и магия музыки снимут напряжение, помогут расслабиться и почувствовать целебное, релаксационное воздействие. Отдыхайте с природой!
Выпущено: Россия
Продолжительность: 01:00:00

Файл:
Качество: DVDRip-AVC
Видео: MPEG4 AVC 1024 x 576, 29.970 fps, 1700 - 1894 Кбит/с
Аудио: AC-3, 2 ch, 192 Кбит/с



General
Unique ID : 174686912293969387647176038155981447759 (0x836B79BC33229E7184C0F54CB4CC624F)
Complete name : C:DownloadsKrasota prirodi.givaya woda.2004.x264.DVDRip.(AVC).by.F-Torrents.mkv
Format : Matroska
Format version : Version 2
File size : 807 MiB
Duration : 59mn 32s
Overall bit rate : 1 894 Kbps
Encoded date : UTC 2013-07-31 21:27:45
Writing application : mkvmerge v6.1.0 ('Old Devil') built on Mar 4 2013 09:10:42
Writing library : libebml v1.3.0 + libmatroska v1.4.0

Video
ID : 1
Format : AVC
Format/Info : Advanced Video Codec
Format profile : High@L4.1
Format settings, CABAC : Yes
Format settings, ReFrames : 5 frames
Codec ID : V_MPEG4/ISO/AVC
Duration : 59mn 32s
Bit rate : 1 700 Kbps
Width : 1 024 pixels
Height : 576 pixels
Display aspect ratio : 16:9
Frame rate mode : Constant
Frame rate : 29.970 fps
Color space : YUV
Chroma subsampling : 4:2:0
Bit depth : 8 bits
Scan type : Progressive
Bits/(Pixel*Frame) : 0.096
Stream size : 709 MiB (88%)
Writing library : x264 core 130 r2273 b3065e6
Encoding settings : cabac=1 / ref=5 / deblock=1:-2:-2 / analyse=0x3:0x111 / me=umh / subme=9 / psy=1 / psy_rd=0.00:0.10 / mixed_ref=1 / me_range=32 / chroma_me=1 / trellis=2 / 8x8dct=1 / cqm=0 / deadzone=21,11 / fast_pskip=1 / chroma_qp_offset=-1 / threads=12 / lookahead_threads=1 / sliced_threads=0 / nr=0 / decimate=1 / interlaced=0 / bluray_compat=0 / constrained_intra=0 / bframes=5 / b_pyramid=2 / b_adapt=0 / b_bias=0 / direct=1 / weightb=1 / open_gop=0 / weightp=2 / keyint=250 / keyint_min=25 / scenecut=40 / intra_refresh=0 / rc_lookahead=50 / rc=2pass / mbtree=1 / bitrate=1700 / ratetol=1.0 / qcomp=0.60 / qpmin=0 / qpmax=69 / qpstep=4 / cplxblur=20.0 / qblur=0.5 / ip_ratio=1.40 / aq=1:1.00
Default : Yes
Forced : No

Audio
ID : 2
Format : AC-3
Format/Info : Audio Coding 3
Mode extension : CM (complete main)
Format settings, Endianness : Big
Codec ID : A_AC3
Duration : 59mn 32s
Bit rate mode : Constant
Bit rate : 192 Kbps
Channel(s) : 2 channels
Channel positions : Front: L R
Sampling rate : 48.0 KHz
Bit depth : 16 bits
Compression mode : Lossy
Stream size : 81.8 MiB (10%)
Default : Yes
Forced : No




Релиз от:



   Похожие торренты   Торрент   Размер 
В этой теме нет новых непрочитанных сообщений. Эрнст Мулдашев. Тайны века. Живая мертвая вода (2005) DVDRip

21 | 5

350.45 МБ

В этой теме нет новых непрочитанных сообщений. Сборник - Живая музыка. Звуки природы (2015) MP3

319 | 41

1.2 ГБ

В этой теме нет новых непрочитанных сообщений. Галина Голубкова - Самогон - живая вода (2007) DjVu

57 | 12

4.59 МБ

В этой теме нет новых непрочитанных сообщений. Порядок действий: Живая и мёртвая вода [24.05] (2010) SATRip

6 | 38

356.73 МБ

В этой теме нет новых непрочитанных сообщений. Живая вода / O zivej vode / The Water of Life (1988) TVRip

2 | 6

701.07 МБ

В этой теме нет новых непрочитанных сообщений. BBC: Мир природы. Смертоносные змеи Индии / BBC: The Natural World. One Million Snake Bites (2011) BDRip-AVC от F-Torrents

8 | 3

716.31 МБ

В этой теме нет новых непрочитанных сообщений. Стрельников Егор - Живая вода; Пресветлый ангел; Русь Былинная; Колыбельные [Гусли] (2003-2008) MP3

135 | 12

346.4 МБ




Вы не можете начинать темы
Вы не можете отвечать на сообщения
Вы не можете редактировать свои сообщения
Вы не можете удалять свои сообщения
Вы не можете добавлять вложения

Перейти:  
Для Мосгорсуда, Роскомнадзора и рекламодателей: mosgorsud-torrent[собачка]yandex.ru
 Вход
ppkBB3cker v.2 © 2008-2014 @ PPK
[ Time : 0.037s | 15 Queries | GZIP : Off ]

Торрент трекер RUTOR.IN, Не можете зайти на rutor.org? Какой новый адрес рутор? Какое зеркало рутор? Не работает rutor.org и зеркала? Тогда наш торрент специально для вас. Rutor.in неофициальное зеркало rutor. В случае если у Вас заблокирован rutor или вдруг Вы не можете на него зайти, то Вы без труда сможете скачать бесплатно и без рекламы последние новинки кино, игр, сериалов и прочего у нас, на Rutor.in. Не нужно использовать прокси, чтобы зайти на рутор, достаточно воспользоваться нашим ресурсом. Все новые фильмы, игры, сериалы, книги и музыка за 2013 и 2014 годы через торрент бесплатно. Скачивайте фильмы в хорошем качестве, игры для пк, xbox, playstation без регистрации. У нас вы найдете новые Зарубежные сериалы и Русские сериалы 2013, 2014, 2015 годов. Оставайтесь с нами, качайте любимые фильмы, игры, сериалы, книги и музыку.