img image001 image001 image001 image001 image001 image001 image001 image001 image001 image001 image001 image001 image001 image001 image001

Planets Sun Sun Sun
Статистика раздачи
Автор: PriZraK | Размер: 2.79 ГБ | Добавлен: 15 фев 2014
Раздают: 0    Качают: 1
Скачать торрент
Скачать торрент
Описание торрента

СообщениеДобавлено: 15 фев 2014 




Мисс Америка / Miss America





Год выпуска: 2013
Страна: США
Жанр: Шоу
Продолжительность: 01:26:21
Перевод: не требуется, английский
Утянуто с kickass


Финал конкурса состоялся 15 сентября в Атлантик-Сити (штат Нью-Джерси, США). Шоу транслировалось в прямом эфире ABC.
Всего в конкурсе участвовали 53 девушки: по одной из 50 штатов США, а также представительницы округа Колумбия, Пуэрто-Рико и Виргинских островов.














Качество: HDTVRip 720р
Формат: MKV
Video: MPEG4 Video (H264) 1280x720 29.97fps 4620 Кбит/сек
Audio: Dolby AC3 48000Hz 6ch 384 Кбит/сек
Общее
Уникальный идентификатор : 164074578074519230128562066089138854007 (0x7B6F9D42F01C617C36383F1FFC2A1877)
Полное имя : D:Miss.America.2014.720p.HDTV.x264-2HD [PublicHD]miss.america.2014.720p.hdtv.x264-2hd.mkv
Формат : Matroska
Версия формата : Version 2
Размер файла : 2,79 Гбайт
Продолжительность : 1 ч. 26 м.
Общий поток : 4620 Кбит/сек
Дата кодирования : UTC 2013-09-16 05:25:41
Программа кодирования : mkvmerge v2.7.0 ('Do It Again') built on Jul 2 2010 16:49:42
Библиотека кодирования : libebml v0.7.7 + libmatroska v0.8.1

Видео
Идентификатор : 1
Формат : AVC
Формат/Информация : Advanced Video Codec
Профиль формата : High@L4.1
Параметр CABAC формата : Да
Параметр ReFrames формата : 5 кадров
Идентификатор кодека : V_MPEG4/ISO/AVC
Продолжительность : 1 ч. 26 м.
Битрейт : 4144 Кбит/сек
Ширина : 1280 пикселей
Высота : 720 пикселей
Соотношение сторон : 16:9
Режим частоты кадров : Постоянный
Частота кадров : 29,970 кадров/сек
Цветовое пространство : YUV
Субдискретизация насыщенности : 4:2:0
Битовая глубина : 8 бит
Тип развёртки : Прогрессивная
Бит/(Пиксели*Кадры) : 0.150
Размер потока : 2,50 Гбайт (90%)
Библиотека кодирования : x264 core 135 r2345 f0c1c53
Настройки программы : cabac=1 / ref=5 / deblock=1:0:0 / analyse=0x3:0x113 / me=umh / subme=8 / psy=1 / psy_rd=1.00:0.00 / mixed_ref=1 / me_range=16 / chroma_me=1 / trellis=1 / 8x8dct=1 / cqm=0 / deadzone=21,11 / fast_pskip=1 / chroma_qp_offset=-2 / threads=12 / lookahead_threads=2 / sliced_threads=0 / nr=0 / decimate=1 / interlaced=0 / bluray_compat=0 / constrained_intra=0 / bframes=3 / b_pyramid=2 / b_adapt=2 / b_bias=0 / direct=3 / weightb=1 / open_gop=0 / weightp=2 / keyint=250 / keyint_min=25 / scenecut=40 / intra_refresh=0 / rc_lookahead=50 / rc=crf / mbtree=1 / crf=22.0 / qcomp=0.60 / qpmin=0 / qpmax=69 / qpstep=4 / ip_ratio=1.40 / aq=1:1.00
Язык : English
Default : Да
Forced : Нет
Коэффициенты матрицы : BT.709

Аудио
Идентификатор : 2
Формат : AC-3
Формат/Информация : Audio Coding 3
Расширение режима : CM (complete main)
Параметр Endianness формата : Big
Идентификатор кодека : A_AC3
Продолжительность : 1 ч. 26 м.
Вид битрейта : Постоянный
Битрейт : 384 Кбит/сек
Каналы : 6 каналов
Расположение каналов : Front: L C R, Side: L R, LFE
Частота : 48,0 КГц
Битовая глубина : 16 бит
Метод сжатия : С потерями
Размер потока : 237 Мбайт (8%)
Default : Да
Forced : Нет





   Похожие торренты   Торрент   Размер 
В этой теме нет новых непрочитанных сообщений. Топ Гир Америка / Top Gear America (USA) [01x01-09] (2011) HDTVRip 720р | Jetvis Studio

2 | 5

10.59 ГБ

В этой теме нет новых непрочитанных сообщений. Мисс Слоун / Miss Sloane (2016) WEBRip 720р | L

87 | 3

3.94 ГБ

В этой теме нет новых непрочитанных сообщений. Мисс Март / Miss March (2009) ВDRip 720р | Р2

15 | 0

3.7 ГБ

В этой теме нет новых непрочитанных сообщений. Top Gear Америка / Top Gear America (USA) [02x01-12 из 16] (2011-2012) HDTVRip 720р | Jetvis Studio

0 | 2

14.84 ГБ

В этой теме нет новых непрочитанных сообщений. Мисс Зомби / Miss Zombie (2013) HDTVRip | L2

63 | 10

1.44 ГБ

В этой теме нет новых непрочитанных сообщений. Мисс Вселенная 2014 / Miss Universe 2014 [25.01] (2015) HDTV 1080i

9 | 3

14.34 ГБ

В этой теме нет новых непрочитанных сообщений. Мисс Перемена / Miss Change (2013) HDTVRip 720p

386 | 110

2.56 ГБ




Вы не можете начинать темы
Вы не можете отвечать на сообщения
Вы не можете редактировать свои сообщения
Вы не можете удалять свои сообщения
Вы не можете добавлять вложения

Перейти:  
Для Мосгорсуда, Роскомнадзора и рекламодателей: mosgorsud-torrent[собачка]yandex.ru
 Вход
ppkBB3cker v.2 © 2008-2014 @ PPK
[ Time : 0.045s | 15 Queries | GZIP : Off ]

cron