img image001 image001 image001 image001 image001 image001 image001 image001 image001 image001 image001 image001 image001 image001 image001

Planets Sun Sun Sun
Статистика раздачи
Автор: PriZraK | Размер: 1.39 ГБ | Добавлен: 15 фев 2014
Раздают: 1    Качают: 1
Скачать торрент
Скачать торрент
Описание торрента

СообщениеДобавлено: 15 фев 2014 




9 сентября прошли так называемые "общественные обсуждения" петиции "Отменить закон о произвольных блокировках интернет-ресурсов от 02.07.2013 № 187-ФЗ (закон против интернета)", набравшей в кратчайшие сроки 100 000 легитимных подписей граждан России.

В мероприятии приняли участие:
— министр по вопросам Открытого правительства Михаил АБЫЗОВ;
— министр культуры РФ Владимир МЕДИНCКИЙ;
— статс-секретарь, заместитель министра культуры Григорий ИВЛИЕВ;
— руководитель Роскомнадзора Александр ЖАРОВ;
— председатель правления Ассоциации продюсеров кино и телевидения Александр АКОПОВ;
— гендиректор Российского авторского общества Сергей ФЕДОТОВ;
— заместитель председателя Госдумы Сергей ЖЕЛЕЗНЯК;
— председатель комитета Госдумы по информационной политике, информационным технологиям и связи Алексей МИТРОФАНОВ;
— член комитета Госдумы по информационной политике, информационным технологиям и связи Роберт ШЛЕГЕЛЬ;
— член Совета Федерации Руслан ГАТТАРОВ;
— заместитель Министра связи и массовых коммуникаций РФ Алексей ВОЛИН.

Также удалось высказаться Артёму Козлюку, члену Пиратской партии России

Обсуждения были названы "общественными", однако сайт большоеправительство.рф говорит, что:
Вход только для представителей СМИ при предъявлении паспорта и удостоверения журналиста.

Длительность: 01:44:28

Качество: WEBRip
Формат: MP4
Video: MPEG4 Video (H264) 1280x720 25fps
Audio: AAC 44100Hz stereo 192kbps
Общее
Полное имя : C:DownloadsОбсуждения петиции против 187-ФЗ, набравшей 100 000 голосов на ROI.ru.mp4
Формат : MPEG-4
Профиль формата : Base Media / Version 2
Идентификатор кодека : mp42
Размер файла : 1,39 Гбайт
Продолжительность : 1 ч. 44 м.
Режим общего битрейта : Переменный
Общий поток : 1901 Кбит/сек
Дата кодирования : UTC 2013-09-19 15:38:37
Дата пометки : UTC 2013-09-19 15:38:37
gsst : 0
gstd : 6268411
gssd : BADC23A8AHH1379701936871873
gshh : r10---sn-n8v7lne7.c.youtube.com

Видео
Идентификатор : 1
Формат : AVC
Формат/Информация : Advanced Video Codec
Профиль формата : High@L3.1
Параметр CABAC формата : Да
Параметр ReFrames формата : 1 кадр
Параметр GOP формата : M=1, N=60
Идентификатор кодека : avc1
Идентификатор кодека/Информация : Advanced Video Coding
Продолжительность : 1 ч. 44 м.
Битрейт : 1706 Кбит/сек
Максимальный битрейт : 4452 Кбит/сек
Ширина : 1280 пикселей
Высота : 720 пикселей
Соотношение сторон : 16:9
Режим частоты кадров : Постоянный
Частота кадров : 25,000 кадров/сек
Цветовое пространство : YUV
Субдискретизация насыщенности : 4:2:0
Битовая глубина : 8 бит
Тип развёртки : Прогрессивная
Бит/(Пиксели*Кадры) : 0.074
Размер потока : 1,25 Гбайт (90%)
Дата пометки : UTC 2013-09-19 15:44:21

Аудио
Идентификатор : 2
Формат : AAC
Формат/Информация : Advanced Audio Codec
Профиль формата : LC
Идентификатор кодека : 40
Продолжительность : 1 ч. 44 м.
Вид битрейта : Переменный
Битрейт : 192 Кбит/сек
Максимальный битрейт : 201 Кбит/сек
Каналы : 2 канала
Расположение каналов : Front: L R
Частота : 44,1 КГц
Метод сжатия : С потерями
Размер потока : 143 Мбайт (10%)
Заголовок : IsoMedia File Produced by Google, 5-11-2011
Дата кодирования : UTC 2013-09-19 15:42:10
Дата пометки : UTC 2013-09-19 15:44:21





   Похожие торренты   Торрент   Размер 
В этой теме нет новых непрочитанных сообщений. О том как власть слышит общество, или Общественное обсуждение «Антипиратского закона» (2013) WEB-DLRip

0 | 1

849.99 МБ

В этой теме нет новых непрочитанных сообщений. Власть закона / COPS 2170: The Power of Law (2003) PC | Лицензия

12 | 4

1.52 ГБ

В этой теме нет новых непрочитанных сообщений. Власть Закона / The Chicago Code [S01] (2011) WEB-DLRip | NovaFilm

4 | 3

5.08 ГБ

В этой теме нет новых непрочитанных сообщений. Власть Закона / Кодекс Чикаго / The Chicago Code [01x01-13 из 13] (2011) WEB-DLRip-AVC

1 | 7

10.96 ГБ

В этой теме нет новых непрочитанных сообщений. Власть закона: Золотая коллекция / The Power of Law. Gold Edition (2003-2005) PC | RePack

145 | 7

1.12 ГБ

В этой теме нет новых непрочитанных сообщений. Код доступа: РАЙ & Власть закона / Paradise Cracked & COPS 2170: The Power of Law (2002-2004) PC | Repack

121 | 9

2.36 ГБ

В этой теме нет новых непрочитанных сообщений. Интернет-пираты вне закона. Андрей Левченко [РБК-ТВ] (19.06) (2013) WEBRip

9 | 2

149.54 МБ




Вы не можете начинать темы
Вы не можете отвечать на сообщения
Вы не можете редактировать свои сообщения
Вы не можете удалять свои сообщения
Вы не можете добавлять вложения

Перейти:  
Для Мосгорсуда, Роскомнадзора и рекламодателей: mosgorsud-torrent[собачка]yandex.ru
 Вход
ppkBB3cker v.2 © 2008-2014 @ PPK
[ Time : 0.037s | 15 Queries | GZIP : Off ]

Торрент трекер RUTOR.IN, Не можете зайти на rutor.org? Какой новый адрес рутор? Какое зеркало рутор? Не работает rutor.org и зеркала? Тогда наш торрент специально для вас. Rutor.in неофициальное зеркало rutor. В случае если у Вас заблокирован rutor или вдруг Вы не можете на него зайти, то Вы без труда сможете скачать бесплатно и без рекламы последние новинки кино, игр, сериалов и прочего у нас, на Rutor.in. Не нужно использовать прокси, чтобы зайти на рутор, достаточно воспользоваться нашим ресурсом. Все новые фильмы, игры, сериалы, книги и музыка за 2013 и 2014 годы через торрент бесплатно. Скачивайте фильмы в хорошем качестве, игры для пк, xbox, playstation без регистрации. У нас вы найдете новые Зарубежные сериалы и Русские сериалы 2013, 2014, 2015 годов. Оставайтесь с нами, качайте любимые фильмы, игры, сериалы, книги и музыку.