img image001 image001 image001 image001 image001 image001 image001 image001 image001 image001 image001 image001 image001 image001 image001

Planets Sun Sun Sun
Статистика раздачи
Автор: PriZraK | Размер: 849.99 МБ | Добавлен: 15 фев 2014
Раздают: 0    Качают: 1
Скачать торрент
Скачать торрент
Описание торрента

СообщениеДобавлено: 15 фев 2014 




Название: Общественное обсуждение «Антипиратского закона» (2013)
Оригинальное название: Obsujdenie Antipiratskogo Zakona
Год выхода: 2013

За отмену данного закона на сайте Российской общественной инициативы проголосовали более 100 тысяч человек, она поступила на рассмотрение экспертной рабочей группы федерального уровня, которую возглавляет министр по вопросам Открытого правительства Михаил Абызов. С учетом поданных голосов, мнения экспертного сообщества, анализа профильных органов исполнительной власти экспертная группа принимает решение, как реализовать данную инициативу.

Круглый стол на тему: "Общественное обсуждение "антипиратского закона". За отмену данного закона на сайте Российской общественной инициативы проголосовали более 100 тысяч человек, она поступила на рассмотрение экспертной рабочей группы федерального уровня, которую возглавляет министр по вопросам Открытого правительства Михаил Абызов. С учетом поданных голосов, мнения экспертного сообщества, анализа профильных органов исполнительной власти экспертная группа принимает решение, как реализовать данную инициативу.

В мероприятии приняли участие:
— министр по вопросам Открытого правительства Михаил АБЫЗОВ;
— министр культуры РФ Владимир МЕДИНCКИЙ;
— статс-секретарь, заместитель министра культуры Григорий ИВЛИЕВ;
— руководитель Роскомнадзора Александр ЖАРОВ;
— председатель правления Ассоциации продюсеров кино и телевидения Александр АКОПОВ;
— гендиректор Российского авторского общества Сергей ФЕДОТОВ;
— заместитель председателя Госдумы Сергей ЖЕЛЕЗНЯК;
— председатель комитета Госдумы по информационной политике, информационным технологиям и связи Алексей МИТРОФАНОВ;
— член комитета Госдумы по информационной политике, информационным технологиям и связи Роберт ШЛЕГЕЛЬ;
— член Совета Федерации Руслан ГАТТАРОВ;
— заместитель Министра связи и массовых коммуникаций РФ Алексей ВОЛИН.
К участию в мероприятии также были приглашены члены Экспертного совета при Правительстве РФ, представители Роскомнадзора, Координационного центра национального домена сети Интернет, Google, Yandex, РАЭК.

Официальный сайт

инфо: avi(xvid) версия, совместимая с быт. плеерами

Продолжительность: 01:44:28

Файл
Кодек: XviD
Качество: WEB-DLRip
Видео: 720x408 (1.76:1), 25 fps, XviD build 50 ~999 kbps avg, 0.14 bit/pixel
Звук: 48 kHz, MPEG Layer 3, 2 ch, ~128.00 kbps avg


General
Complete name :Obsujdenie.Antipiratskogo.Zakona.2013.avi
Format : AVI
Format/Info : Audio Video Interleave
File size : 850 MiB
Duration : 1h 44mn
Overall bit rate : 1 138 Kbps
Writing application : VirtualDubMod 1.5.10.3 | www.virtualdub-fr.org || (build 2550/release)
Writing library : VirtualDubMod build 2550/release

Video
ID : 0
Format : MPEG-4 Visual
Format profile : Advanced Simple@L5
Format settings, BVOP : 2
Format settings, QPel : No
Format settings, GMC : No warppoints
Format settings, Matrix : Default (MPEG)
Codec ID : DX50
Codec ID/Hint : DivX 5
Duration : 1h 44mn
Bit rate : 1 000 Kbps
Width : 720 pixels
Height : 408 pixels
Display aspect ratio : 16:9
Frame rate : 25.000 fps
Color space : YUV
Chroma subsampling : 4:2:0
Bit depth : 8 bits
Scan type : Progressive
Compression mode : Lossy
Bits/(Pixel*Frame) : 0.136
Stream size : 747 MiB (88%)
Writing library : XviD 1.2.1 (UTC 2008-12-04)

Audio
ID : 1
Format : MPEG Audio
Format version : Version 1
Format profile : Layer 3
Mode : Joint stereo
Mode extension : MS Stereo
Codec ID : 55
Codec ID/Hint : MP3
Duration : 1h 44mn
Bit rate mode : Constant
Bit rate : 128 Kbps
Channel count : 2 channels
Sampling rate : 48.0 KHz
Compression mode : Lossy
Stream size : 95.6 MiB (11%)
Alignment : Aligned on interleaves
Interleave, duration : 40 ms (1.00 video frame)
Interleave, preload duration : 504 ms
Writing library : LAME3.99r
Encoding settings : -m j -V 4 -q 2 -lowpass 17 -b 128



   Похожие торренты   Торрент   Размер 
В этой теме нет новых непрочитанных сообщений. О том как власть слышит общество, или Общественное обсуждение «Антипиратского закона» (2013) WEBRip

1 | 1

1.39 ГБ

В этой теме нет новых непрочитанных сообщений. Власть Закона / The Chicago Code [S01] (2011) WEB-DLRip | NovaFilm

4 | 3

5.08 ГБ

В этой теме нет новых непрочитанных сообщений. Власть Закона / Кодекс Чикаго / The Chicago Code [01x01-13 из 13] (2011) WEB-DLRip-AVC

1 | 7

10.96 ГБ

В этой теме нет новых непрочитанных сообщений. Власть закона / COPS 2170: The Power of Law (2003) PC | Лицензия

12 | 4

1.52 ГБ

В этой теме нет новых непрочитанных сообщений. Власть закона: Золотая коллекция / The Power of Law. Gold Edition (2003-2005) PC | RePack

145 | 7

1.12 ГБ

В этой теме нет новых непрочитанных сообщений. Код доступа: РАЙ & Власть закона / Paradise Cracked & COPS 2170: The Power of Law (2002-2004) PC | Repack

121 | 9

2.36 ГБ

В этой теме нет новых непрочитанных сообщений. Ледников / Сыщик вне закона [01-16 из 16] (2013) WEB-DLRip-AVC от ExKinoRay

76 | 69

8.76 ГБ




Вы не можете начинать темы
Вы не можете отвечать на сообщения
Вы не можете редактировать свои сообщения
Вы не можете удалять свои сообщения
Вы не можете добавлять вложения

Перейти:  
Для Мосгорсуда, Роскомнадзора и рекламодателей: mosgorsud-torrent[собачка]yandex.ru
 Вход
ppkBB3cker v.2 © 2008-2014 @ PPK
[ Time : 0.054s | 14 Queries | GZIP : Off ]

Торрент трекер RUTOR.IN, Не можете зайти на rutor.org? Какой новый адрес рутор? Какое зеркало рутор? Не работает rutor.org и зеркала? Тогда наш торрент специально для вас. Rutor.in неофициальное зеркало rutor. В случае если у Вас заблокирован rutor или вдруг Вы не можете на него зайти, то Вы без труда сможете скачать бесплатно и без рекламы последние новинки кино, игр, сериалов и прочего у нас, на Rutor.in. Не нужно использовать прокси, чтобы зайти на рутор, достаточно воспользоваться нашим ресурсом. Все новые фильмы, игры, сериалы, книги и музыка за 2013 и 2014 годы через торрент бесплатно. Скачивайте фильмы в хорошем качестве, игры для пк, xbox, playstation без регистрации. У нас вы найдете новые Зарубежные сериалы и Русские сериалы 2013, 2014, 2015 годов. Оставайтесь с нами, качайте любимые фильмы, игры, сериалы, книги и музыку.