img image001 image001 image001 image001 image001 image001 image001 image001 image001 image001 image001 image001 image001 image001 image001

Planets Sun Sun Sun
Статистика раздачи
Автор: PriZraK | Размер: 5.98 ГБ | Добавлен: 15 фев 2014
Раздают: 0    Качают: 1
Скачать торрент
Скачать торрент
Описание торрента

СообщениеДобавлено: 15 фев 2014 




Информация о фильме
Название: 65-я церемония вручения премии Эмми
Оригинальное название: The 65th Annual Primetime Emmy Awards
Год выхода: 2013

О фильме:
«Эмми» — главная американская премия в области телевидения, ежегодно вручаемая Американской телевизионной академией. «Эмми» считается телевизионным аналогом премии «Оскар». 22 сентября 2013 года в Nokia Theatre в Лос-Анджелесе состоялась 65-я церемония вручения премии «Эмми».
Страна: США
Продолжительность: 01:50:13
Перевод: Професcиональный многоголосый (Amedia)
Комментируют: Михаил Козырев, Тутта Ларсен, Илья Иноземцев|

Файл
Кодек: MPEG-4 AVC
Качество: HDTV 1080i
Видео: 1920x1080 at 25.000 fps, ~7000 kbps avg
Звук:
Аудио#1: Russian: 48 kHz, AC3, 3/2 (L,C,R,l,r) + LFE ch, ~384.00 kbps avg |Комментируют: Михаил Козырев, Тутта Ларсен, Илья Иноземцев|
Аудио#2: English: 48 kHz, MPA, 2/0 (L,R) ch, ~192.00 kbps avg
Общее
Идентификатор : 1 (0x1)
Полное имя : The.65th.Annual.Primetime.Emmy.Awards.2013.1080i.HDTV.Rus.Eng.HDCLUB.ts
Формат : MPEG-TS
Размер файла : 5,98 Гбайт
Продолжительность : 1 ч. 50 м.
Режим общего битрейта : Переменный
Общий поток : 7767 Кбит/сек

Видео
Идентификатор : 401 (0x191)
Идентификатор меню : 1 (0x1)
Формат : AVC
Формат/Информация : Advanced Video Codec
Профиль формата : High@L4.0
Параметр CABAC формата : Да
Параметр ReFrames формата : 4 кадра
Идентификатор кодека : 27
Продолжительность : 1 ч. 50 м.
Битрейт : 6801 Кбит/сек
Ширина : 1920 пикселей
Высота : 1080 пикселей
Соотношение сторон : 16:9
Частота кадров : 25,000 кадров/сек
Стандарт вещания : Component
Цветовое пространство : YUV
Субдискретизация насыщенности : 4:2:0
Битовая глубина : 8 бит
Тип развёртки : MBAFF
Бит/(Пиксели*Кадры) : 0.131
Размер потока : 5,24 Гбайт (88%)
Основные цвета : BT.709
Характеристики трансфера : BT.709
Коэффициенты матрицы : BT.709

Аудио #1
Идентификатор : 410 (0x19A)
Идентификатор меню : 1 (0x1)
Формат : AC-3
Формат/Информация : Audio Coding 3
Расширение режима : CM (complete main)
Параметр Endianness формата : Big
Идентификатор кодека : 6
Продолжительность : 1 ч. 50 м.
Вид битрейта : Постоянный
Битрейт : 384 Кбит/сек
Каналы : 6 каналов
Расположение каналов : Front: L C R, Side: L R, LFE
Частота : 48,0 КГц
Битовая глубина : 16 бит
Метод сжатия : С потерями
Размер потока : 303 Мбайт (5%)
Язык : Russian

Аудио #2
Идентификатор : 411 (0x19B)
Идентификатор меню : 1 (0x1)
Формат : MPEG Audio
Версия формата : Version 1
Профиль формата : Layer 2
Идентификатор кодека : 3
Продолжительность : 1 ч. 50 м.
Вид битрейта : Постоянный
Битрейт : 192 Кбит/сек
Каналы : 2 канала
Частота : 48,0 КГц
Метод сжатия : С потерями
Размер потока : 151 Мбайт (2%)
Язык : English






Релиз от: by Nez



   Похожие торренты   Торрент   Размер 
В этой теме нет новых непрочитанных сообщений. 65-я церемония вручения премии Эмми / The 65th Annual Primetime Emmy Awards (2013) HDTVRip

0 | 1

2.03 ГБ

В этой теме нет новых непрочитанных сообщений. 67-я Церемония Вручения Премии Эмми 2015 / The 67th Annual Primetime Emmy Awards 2015 (2015) HDTV 1080i от HDClub | P

38 | 15

5.59 ГБ

В этой теме нет новых непрочитанных сообщений. 67-я Церемония Вручения Премии Эмми / The 67th Annual Primetime Emmy Awards (2015) HDTVRip-AVC | NOVAMEDiA

61 | 13

1.5 ГБ

В этой теме нет новых непрочитанных сообщений. 68-я Церемония Вручения Премии Эмми / The 68th Annual Primetime Emmy Awards (2016) HDTVRip 720p

91 | 36

3 ГБ

В этой теме нет новых непрочитанных сообщений. 67-я Церемония Вручения Премии Эмми / The 67th Annual Primetime Emmy Awards (2015) HDTVRip 720p | NOVAMEDiA

62 | 6

3.3 ГБ

В этой теме нет новых непрочитанных сообщений. 86-я церемония вручения премии «Оскар» / The 86th Annual Academy Awards (2014) HDTV 1080i

203 | 93

5.83 ГБ

В этой теме нет новых непрочитанных сообщений. 89-я Церемония Вручения Премии «Оскар» 2016 / The 89th Annual Academy Awards [26.02] (2017) HDTV 1080i | Первый Канал

262 | 15

5.35 ГБ




Вы не можете начинать темы
Вы не можете отвечать на сообщения
Вы не можете редактировать свои сообщения
Вы не можете удалять свои сообщения
Вы не можете добавлять вложения

Перейти:  
Для Мосгорсуда, Роскомнадзора и рекламодателей: mosgorsud-torrent[собачка]yandex.ru
 Вход
ppkBB3cker v.2 © 2008-2014 @ PPK
[ Time : 0.045s | 17 Queries | GZIP : Off ]

Торрент трекер RUTOR.IN, Не можете зайти на rutor.org? Какой новый адрес рутор? Какое зеркало рутор? Не работает rutor.org и зеркала? Тогда наш торрент специально для вас. Rutor.in неофициальное зеркало rutor. В случае если у Вас заблокирован rutor или вдруг Вы не можете на него зайти, то Вы без труда сможете скачать бесплатно и без рекламы последние новинки кино, игр, сериалов и прочего у нас, на Rutor.in. Не нужно использовать прокси, чтобы зайти на рутор, достаточно воспользоваться нашим ресурсом. Все новые фильмы, игры, сериалы, книги и музыка за 2013 и 2014 годы через торрент бесплатно. Скачивайте фильмы в хорошем качестве, игры для пк, xbox, playstation без регистрации. У нас вы найдете новые Зарубежные сериалы и Русские сериалы 2013, 2014, 2015 годов. Оставайтесь с нами, качайте любимые фильмы, игры, сериалы, книги и музыку.
cron