img image001 image001 image001 image001 image001 image001 image001 image001 image001 image001 image001 image001 image001 image001 image001

Planets Sun Sun Sun
Статистика раздачи
Автор: PriZraK | Размер: 3.96 ГБ | Добавлен: 15 фев 2014
Раздают: 1    Качают: 3
Скачать торрент
Скачать торрент
Описание торрента

СообщениеДобавлено: 15 фев 2014 


Голос (The Voice). Гала концерт в рамках акции "Всем миром"

Жанр: Pop, Show
Продолжительность: 00:44:47
Год выпуска: 2013

Описание: 29 сентября с 8 утра на Первом канале - благотворительный марафон «Всем миром», цель которого помочь пострадавшим от наводнения на Дальнем Востоке. В этой акции примут участие ведущие Первого канала, музыканты, звезды кино и шоу-бизнеса. Планируются включения из городов и поселков, затронутых стихией, а также из нескольких студий и площадок в Москве. Так же в проекте принимает участие шоу "Голос" и его лучшие вокалисты.

Участники:

01 - Александр Градский и Дина Гарипова
02 - Эдвард Хачарян
03 - Анастасия Спиридонова
04 - Павел Пушкин и Артур Васильев
05 - Севара
06 - Никита и Александр Поздняковы, Ольга Кляйн
07 - Маргарита Позоян и Дмитрий Билан
08 - Пелагея
09 - Виртуозы Москвы
10 - Дина Гарипова

Источник: собственный рип

Доп. информация: Релиз -


Рип чистый. Без посторонних надписей. Выкладывается как есть.

Качество: HDTV 1080i
Контейнер: TS
Видео кодек: AVC
Аудио кодек: MP2
Видео: 1920x1080 (16:9) 25.000 fps 13.6 Mbps, 0.263 bit/pixel
Аудио: MPEG Audio 48000Hz stereo 192 Кбит/сек









GeneralID : 1 (0x1)Complete name : D:ВыкладкаГолос (The Voice). Гала концерт в рамках акции Всем миром (2013, Pop, Show, HDTV 1080i) (MYDIMKA)2 - Эдвард Хачарян.tsFormat : MPEG-TSFile size : 484 MiBDuration : 4mn 39sOverall bit rate mode : VariableOverall bit rate : 14.5 Mbps

VideoID : 69 (0x45)Menu ID : 1 (0x1)Format : AVCFormat/Info : Advanced Video CodecFormat profile : High@L4.0Format settings, CABAC : YesFormat settings, ReFrames : 3 framesCodec ID : 27Duration : 4mn 39sBit rate : 13.6 MbpsWidth : 1 920 pixelsHeight : 1 080 pixelsDisplay aspect ratio : 16:9Frame rate : 25.000 fpsStandard : ComponentColor space : YUVChroma subsampling : 4:2:0Bit depth : 8 bitsScan type : InterlacedScan order : Top Field FirstBits/(Pixel*Frame) : 0.263Stream size : 453 MiB (94%)Color primaries : BT.709Transfer characteristics : BT.709Matrix coefficients : BT.709

AudioID : 68 (0x44)Menu ID : 1 (0x1)Format : MPEG AudioFormat version : Version 1Format profile : Layer 2Codec ID : 3Duration : 4mn 39sBit rate mode : ConstantBit rate : 192 KbpsChannel count : 2 channelsSampling rate : 48.0 KHzCompression mode : LossyStream size : 6.39 MiB (1%)Language : English



   Похожие торренты   Торрент   Размер 
В этой теме нет новых непрочитанных сообщений. Гала концерт в рамках акции "Всем миром" (2013) HDTV 1080i

0 | 10

4.19 ГБ

В этой теме нет новых непрочитанных сообщений. Танцы со звездами. Гала-концерт (2012) HDTV (1080i) от Files-x

4 | 8

7.73 ГБ

В этой теме нет новых непрочитанных сообщений. Голос. 5 лет. Большой праздничный концерт в Кремле (2017) HDTV 1080i от GeneralFilm

9 | 0

9.99 ГБ

В этой теме нет новых непрочитанных сообщений. Рихард Вагнер - Гала-концерт в день рождения / Richard Wagner - Wagner Birthday Gala 2013 (2014) Blu-Ray 1080i

2 | 3

19.88 ГБ

В этой теме нет новых непрочитанных сообщений. Голос Британии / The Voice UK [02x01-13] (2013) HDTVRip 720р | Sub

0 | 3

22.29 ГБ

В этой теме нет новых непрочитанных сообщений. Голос Америки / The Voice US [04х01-10] (2013) HDTVRip 720p | Sub

9 | 14

15.58 ГБ

В этой теме нет новых непрочитанных сообщений. Я тебя услышу / Я слышу твой голос / I Hear Your Voice [S01] (2013) HDTVRip | STEPonee

65 | 54

11.53 ГБ




Вы не можете начинать темы
Вы не можете отвечать на сообщения
Вы не можете редактировать свои сообщения
Вы не можете удалять свои сообщения
Вы не можете добавлять вложения

Перейти:  
Для Мосгорсуда, Роскомнадзора и рекламодателей: mosgorsud-torrent[собачка]yandex.ru
 Вход
ppkBB3cker v.2 © 2008-2014 @ PPK
[ Time : 0.045s | 15 Queries | GZIP : Off ]

cron