img image001 image001 image001 image001 image001 image001 image001 image001 image001 image001 image001 image001 image001 image001 image001

Planets Sun Sun Sun
Статистика раздачи
Автор: PriZraK | Размер: 4.19 ГБ | Добавлен: 15 фев 2014
Раздают: 0    Качают: 10
Скачать торрент
Скачать торрент
Описание торрента

СообщениеДобавлено: 15 фев 2014 


Гала концерт в рамках акции "Всем миром"

Жанр: Pop
Продолжительность: 00:49:51
Год выпуска: 2013

Описание: 29 сентября с 8 утра на Первом канале - благотворительный марафон «Всем миром», цель которого помочь пострадавшим от наводнения на Дальнем Востоке. В этой акции примут участие ведущие Первого канала, музыканты, звезды кино и шоу-бизнеса. Планируются включения из городов и поселков, затронутых стихией, а также из нескольких студий и площадок в Москве. В рамках благотворительно марафона "Всем миром" в Парке Горького состоится концерт. Начало концерта – в 12.00 Среди участников – Ольга Кормухина, Лариса Долина, Александр Маршал, Сергей Галанин, Валерия, Владимир Пресняков, Леонид Агутин, Евгений Маргулис, группы "Ума Турман", "А-Студио", "Город 312", "Любэ", "Браво".

Участники:

01 - Группа Любэ
02 - Ольга Кормухина и Алексей Белов
03 - Лариса Долина
04 - Ума Турман
05 - А. Студио
06 - Александр Маршал
07 - Город 312
08 - Сергей Галанин
09 - Евгений Маргулис
10 - Валерия и Валерий Меладзе
11 - Браво
12 - Земляне
13 - Леонид Агутин и Владимир Пресняков (не целиком)

Источник: собственный рип

Доп. информация: Релиз -


Рип чистый. Без посторонних надписей. Выкладывается как есть.

Качество: HDTV 1080i
Контейнер: TS
Видео кодек: AVC
Аудио кодек: MP2
Видео: 1920x1080 (16:9) 25.000 fps 11.5 Mbps, 0.222 bit/pixel
Аудио: MPEG Audio 48000Hz stereo 192 Кбит/сек









GeneralID : 1 (0x1)Complete name : D:ВыкладкаГала концерт в рамках акции Всем миром (2013, Pop, Show, HDTV 1080i) (MYDIMKA)1 - Группа Любэ.tsFormat : MPEG-TSFile size : 446 MiBDuration : 5mn 3sOverall bit rate mode : VariableOverall bit rate : 12.3 Mbps

VideoID : 69 (0x45)Menu ID : 1 (0x1)Format : AVCFormat/Info : Advanced Video CodecFormat profile : High@L4.0Format settings, CABAC : YesFormat settings, ReFrames : 3 framesCodec ID : 27Duration : 5mn 3sBit rate : 11.5 MbpsWidth : 1 920 pixelsHeight : 1 080 pixelsDisplay aspect ratio : 16:9Frame rate : 25.000 fpsStandard : ComponentColor space : YUVChroma subsampling : 4:2:0Bit depth : 8 bitsScan type : InterlacedScan order : Top Field FirstBits/(Pixel*Frame) : 0.222Stream size : 417 MiB (93%)Color primaries : BT.709Transfer characteristics : BT.709Matrix coefficients : BT.709

AudioID : 68 (0x44)Menu ID : 1 (0x1)Format : MPEG AudioFormat version : Version 1Format profile : Layer 2Codec ID : 3Duration : 5mn 3sBit rate mode : ConstantBit rate : 192 KbpsChannel count : 2 channelsSampling rate : 48.0 KHzCompression mode : LossyStream size : 6.94 MiB (2%)Language : English



   Похожие торренты   Торрент   Размер 
В этой теме нет новых непрочитанных сообщений. Голос (The Voice). Гала концерт в рамках акции "Всем миром" (2013) HDTV 1080i

1 | 3

3.96 ГБ

В этой теме нет новых непрочитанных сообщений. Танцы со звездами. Гала-концерт (2012) HDTV (1080i) от Files-x

4 | 8

7.73 ГБ

В этой теме нет новых непрочитанных сообщений. Рихард Вагнер - Гала-концерт в день рождения / Richard Wagner - Wagner Birthday Gala 2013 (2014) Blu-Ray 1080i

2 | 3

19.88 ГБ

В этой теме нет новых непрочитанных сообщений. Калина красная - Гала-Концерт среди осуждённых. г. Барнаул (2013) SATRip

151 | 12

1.05 ГБ

В этой теме нет новых непрочитанных сообщений. Гала-концерт открытия новой сцены Мариинского театра / The Mariinsky II Opening Gala 2013 (2015) BDRip

4 | 23

1.65 ГБ

В этой теме нет новых непрочитанных сообщений. Гала-концерт открытия новой сцены Мариинского театра / The Mariinsky II Opening Gala 2013 (2015) BDRip

7 | 3

1.45 ГБ

В этой теме нет новых непрочитанных сообщений. День рождения Рихарда Вагнера. Гала-концерт / The Richard Wagner Birthday Gala (2013) BDRip 720p от MediaClub

15 | 14

7 ГБ




Вы не можете начинать темы
Вы не можете отвечать на сообщения
Вы не можете редактировать свои сообщения
Вы не можете удалять свои сообщения
Вы не можете добавлять вложения

Перейти:  
Для Мосгорсуда, Роскомнадзора и рекламодателей: mosgorsud-torrent[собачка]yandex.ru
 Вход
ppkBB3cker v.2 © 2008-2014 @ PPK
[ Time : 0.019s | 15 Queries | GZIP : Off ]

Торрент трекер RUTOR.IN, Не можете зайти на rutor.org? Какой новый адрес рутор? Какое зеркало рутор? Не работает rutor.org и зеркала? Тогда наш торрент специально для вас. Rutor.in неофициальное зеркало rutor. В случае если у Вас заблокирован rutor или вдруг Вы не можете на него зайти, то Вы без труда сможете скачать бесплатно и без рекламы последние новинки кино, игр, сериалов и прочего у нас, на Rutor.in. Не нужно использовать прокси, чтобы зайти на рутор, достаточно воспользоваться нашим ресурсом. Все новые фильмы, игры, сериалы, книги и музыка за 2013 и 2014 годы через торрент бесплатно. Скачивайте фильмы в хорошем качестве, игры для пк, xbox, playstation без регистрации. У нас вы найдете новые Зарубежные сериалы и Русские сериалы 2013, 2014, 2015 годов. Оставайтесь с нами, качайте любимые фильмы, игры, сериалы, книги и музыку.