img image001 image001 image001 image001 image001 image001 image001 image001 image001 image001 image001 image001 image001 image001 image001

Planets Sun Sun Sun
Статистика раздачи
Автор: PriZraK | Размер: 1.39 ГБ | Добавлен: 15 фев 2014
Раздают: 1    Качают: 1
Скачать торрент
Скачать торрент
Описание торрента

СообщениеДобавлено: 15 фев 2014 




Год выпуска : 2013
Страна : Россия
Жанр : Документальный
Продолжительность: 01:34:26
Язык : Русский
Ведущий : Павел Шеремет


Описание:
1 августа вступил в силу т.н. “антипиратский закон”. Теперь по решению суда страницы с нелегальным контентом в Интернете будут блокироваться. Пока, правда, речь идет только о кино, но осенью депутаты планируют вернуться к вопросу – музыка, книги, софт…
Новый закон – это действительно просто борьба с “пиратством”, или “закручивание гаек” и введение цензуры в Сети? Должно ли вообще государство регулировать отношения в Интернете?
Почему закон выпущен в «сыром» виде и распространяется только на кино? Случайно это или нет? На что опирались авторы законопроекта, создавая такие формулировки?
Готовы ли наши граждане платить живые деньги за легальный контент? Или они слишком привыкли к “халяве”?
Способны ли пользователи Интернета отличить легальный контент от нелегального? Как это сделать? Чтобы реально побороть пиратство в Сети, надо запрещать или просвещать?
Почему представители интернет-общественности протестуют против принятия закона? Что именно их не устраивает? Есть ли в Сети те, кто поддерживает закон?

Участники дискуссии:
Станислав КОЗЛОВСКИЙ - администратор русской “Википедии”
Ольга КРИВЕЛЬСКАЯ - генеральный директор компании “Кард Патент”, кандидат юридических наук, доцент МГИМО
Саркис ДАРБИНЯН - адвокат Ассоциации пользователей Интернета, правозащитник
Олег СМОЛИН - депутат Госдумы РФ, первый зампред Комитета ГД по образованию
Сергей КРАВЦОВ - генеральный директор компании “Русские Интернет Решения”
Владимир ВОЛКОВ - юрист компании “Кино без границ”
Станислав ШАКИРОВ - сопредседатель Ассоциации пользователей Интернета
Олег БАРМИН - директор по маркетингу “Живого Журнала”




Общее
Идентификатор : 1 (0x1)
Полное имя : D:ФИЛЬМЫSTVOTR- ПравДа!.ts
Формат : MPEG-TS
Размер файла : 1,24 Гбайт
Продолжительность : 1 ч. 24 м.
Режим общего битрейта : Переменный
Общий поток : 2110 Кбит/сек

Видео
Идентификатор : 1191 (0x4A7)
Идентификатор меню : 1 (0x1)
Формат : AVC
Формат/Информация : Advanced Video Codec
Профиль формата : Main@L3.0
Параметр CABAC формата : Да
Параметр ReFrames формата : 3 кадра
Параметр GOP формата : M=4, N=24
Идентификатор кодека : 27
Продолжительность : 1 ч. 24 м.
Битрейт : 1876 Кбит/сек
Ширина : 720 пикселей
Высота : 576 пикселей
Соотношение сторон : 16:9
Частота кадров : 25,000 кадров/сек
Стандарт вещания : Component
Цветовое пространство : YUV
Субдискретизация насыщенности : 4:2:0
Битовая глубина : 8 бит
Тип развёртки : Чересстрочная
Порядок развёртки : Верхнее поле первое
Бит/(Пиксели*Кадры) : 0.181
Размер потока : 1,10 Гбайт (89%)
Основные цвета : BT.601 PAL
Характеристики трансфера : BT.470 System B, BT.470 System G
Коэффициенты матрицы : BT.601

Аудио
Идентификатор : 1192 (0x4A8)
Идентификатор меню : 1 (0x1)
Формат : MPEG Audio
Версия формата : Version 1
Профиль формата : Layer 2
Идентификатор кодека : 3
Продолжительность : 1 ч. 24 м.
Вид битрейта : Постоянный
Битрейт : 128 Кбит/сек
Каналы : 2 канала
Частота : 48,0 КГц
Метод сжатия : С потерями
Размер потока : 77,1 Мбайт (6%)
Язык : English


Качество: DVB
Формат: TS
Видео кодек: AVC
Аудио кодек: MPEG1
Видео: MPEG4 Video (H264) 720x576 (4:3) 25.00fps 1876 Кбит/сек
Аудио:
MPEG Audio 48000Hz stereo 128 Кбит/сек



   Похожие торренты   Торрент   Размер 
В этой теме нет новых непрочитанных сообщений. Прав? Да! - Гомосексуалисты, антигейский закон, ЛГБТ-сообщества [24.10] (2013) DVB

0 | 13

1.37 ГБ

В этой теме нет новых непрочитанных сообщений. Прав? Да! - В.Жириновский [Выпуск от 07.11] (2013) DVB

0 | 2

1.4 ГБ

В этой теме нет новых непрочитанных сообщений. ВМФ США: охота за пиратами / US NAVY: pirate hunters (2010) SATRip

0 | 2

513.88 МБ

В этой теме нет новых непрочитанных сообщений. Яндекс - цензура (2011) HD720

0 | 2

217.98 МБ

В этой теме нет новых непрочитанных сообщений. Цензура в СМИ. Дебаты Навального и Познера. (2016) WEBRip 720p

333 | 6

961.3 МБ

В этой теме нет новых непрочитанных сообщений. Пациент всегда прав / Royal Pains [S05] (2013) WEB-DLRip | NewStudio

5 | 7

6.99 ГБ

В этой теме нет новых непрочитанных сообщений. Человек и закон [Выпуск от 20.01.2011] (2011) SATRip by ANDROZZZ (BigFANGroup)

0 | 1

545.83 МБ




Вы не можете начинать темы
Вы не можете отвечать на сообщения
Вы не можете редактировать свои сообщения
Вы не можете удалять свои сообщения
Вы не можете добавлять вложения

Перейти:  
Для Мосгорсуда, Роскомнадзора и рекламодателей: mosgorsud-torrent[собачка]yandex.ru
 Вход
ppkBB3cker v.2 © 2008-2014 @ PPK
[ Time : 0.029s | 15 Queries | GZIP : Off ]

Торрент трекер RUTOR.IN, Не можете зайти на rutor.org? Какой новый адрес рутор? Какое зеркало рутор? Не работает rutor.org и зеркала? Тогда наш торрент специально для вас. Rutor.in неофициальное зеркало rutor. В случае если у Вас заблокирован rutor или вдруг Вы не можете на него зайти, то Вы без труда сможете скачать бесплатно и без рекламы последние новинки кино, игр, сериалов и прочего у нас, на Rutor.in. Не нужно использовать прокси, чтобы зайти на рутор, достаточно воспользоваться нашим ресурсом. Все новые фильмы, игры, сериалы, книги и музыка за 2013 и 2014 годы через торрент бесплатно. Скачивайте фильмы в хорошем качестве, игры для пк, xbox, playstation без регистрации. У нас вы найдете новые Зарубежные сериалы и Русские сериалы 2013, 2014, 2015 годов. Оставайтесь с нами, качайте любимые фильмы, игры, сериалы, книги и музыку.
cron