img image001 image001 image001 image001 image001 image001 image001 image001 image001 image001 image001 image001 image001 image001 image001

Planets Sun Sun Sun
Статистика раздачи
Автор: PriZraK | Размер: 5.35 ГБ | Добавлен: 15 фев 2014
Раздают: 1    Качают: 1
Скачать торрент
Скачать торрент
Описание торрента

СообщениеДобавлено: 15 фев 2014 

Хит. Первый (1) сезон

Страна: Россия
Жанр: Pop, Show
Продолжительность: 00:55:00 / выпуск
Год выпуска: 2013 г.
Описание: Мировая премьера! Впервые в музыкальном шоу соревнуются не певцы, а сами песни! Сначала мы искали новые, неизвестные, ни разу не исполнявшиеся на публике песни. Песни, которые смогли бы покорить и звезд, и зрителя. Стать настоящими хитами! Анкеты на кастинг шли буквально со всех концов России: их пришло почти 20 тысяч. Надо было совершить открытие – и оно совершилось. Грандиозный поиск дал свои результаты. Выбрано 30 самых талантливых авторов. 30 самых многообещающих песен! Теперь их судьбу решают звезды и телезрители. Самые лучшие песни шоу "Хит" прозвучат в исполнении самых популярных исполнителей. Звезды всегда мечтают открыть для себя нового автора. Николай Басков, Валерия, Олег Газманов, Сергей Лазарев, Ани Лорак, Мали, Александр Маршал, Нюша, Стас Пьеха, Сергей Трофимов – все они надеются найти свой хит и завоевать с ним победу! Только зрительское голосование определит – кто создал лучшую песню, кто сумел покорить всех слушателей, кто стал открытием года. Мы увидим, как приходит слава. Только одна песня войдет в историю как первый победитель первой уникальной программы ХИТ!

Ведущие шоу – Маргарита Митрофанова и Юрий Аскаров. За роялем – музыкальный продюсер Виктор Дробыш.

Треклист:

01 выпуск:

01. Алексей Югин - "Душа"
02. Антон Лошаков - "Города любви"
03. Елена и Николай Дмитриевы - "Не прошла грусть"
04. Александра Лившиц и Родион Фарафонтов - "Солнцем и Луной"
05. Елена Лёвина - "Оставь мне"
06. Сергей Нечепаев - "За горизонтом неба"

Источник: собственный рип
Доп. информация: Релиз -


Рип чистый. Без посторонних надписей. Выкладывается как есть.

Качество: SATRIp
Формат: AVI
Видео кодек: XVID
Аудио кодек: MP3
Видео: 720x400 (16:9) 25.000 fps 2 100 Kbps, 0.291 bit/pixel
Аудио: MPEG Audio, 48000Hz, 2 channels, 192 Кбит/сек






GeneralComplete name : D:ВыкладкаХит. Первый сезон (2013, Pop, Show, SATRip) (MYDIMKA)1 выпуск (Эфир 06.09.2013) (MYDIMKA).aviFormat : AVIFormat/Info : Audio Video InterleaveFile size : 891 MiBDuration : 54mn 11sOverall bit rate : 2 298 KbpsWriting application : VirtualDubMod 1.5.10.3 | www.virtualdub-fr.org || (build 2550/release)Writing library : VirtualDubMod build 2550/release

VideoID : 0Format : MPEG-4 VisualFormat profile : Advanced Simple@L5Format settings, BVOP : 2Format settings, QPel : NoFormat settings, GMC : No warppointsFormat settings, Matrix : Default (H.263)Muxing mode : Packed bitstreamCodec ID : XVIDCodec ID/Hint : XviDDuration : 54mn 11sBit rate : 2 096 KbpsWidth : 720 pixelsHeight : 400 pixelsDisplay aspect ratio : 16:9Frame rate : 25.000 fpsColor space : YUVChroma subsampling : 4:2:0Bit depth : 8 bitsScan type : ProgressiveCompression mode : LossyBits/(Pixel*Frame) : 0.291Stream size : 812 MiB (91%)Writing library : XviD 1.2.1 (UTC 2008-12-04)

AudioID : 1Format : MPEG AudioFormat version : Version 1Format profile : Layer 3Codec ID : 55Codec ID/Hint : MP3Duration : 54mn 11sBit rate mode : ConstantBit rate : 192 KbpsChannel(s) : 2 channelsSampling rate : 48.0 KHzCompression mode : LossyStream size : 74.4 MiB (8%)Alignment : Aligned on interleavesInterleave, duration : 40 ms (1.00 video frame)Interleave, preload duration : 504 msWriting library : LAME3.99rEncoding settings : -m s -V 4 -q 2 -lowpass 18.6 -b 192



   Похожие торренты   Торрент   Размер 
В этой теме нет новых непрочитанных сообщений. Comedy Club (Выпуск 161) Новогодний выпуск (2009) SATRip by BigFAN

126 | 18

700.5 МБ

В этой теме нет новых непрочитанных сообщений. Comedy Club (Выпуск 160) Новогодний выпуск (2008) SATRip by BigFAN

2 | 9

520.06 МБ

В этой теме нет новых непрочитанных сообщений. Большая разница. Выпуск 21. Новогодний выпуск (2009) SATRip by KVNforAll

3 | 2

1.37 ГБ

В этой теме нет новых непрочитанных сообщений. Большая разница - Новогодний выпуск [Выпуск №21] (2009) SATRip

1 | 4

1.05 ГБ

В этой теме нет новых непрочитанных сообщений. Comedy Club: Новогодний выпуск (Выпуск 199) (2009) SATRip

10 | 5

501.07 МБ

В этой теме нет новых непрочитанных сообщений. Comedy Club Рожденственский выпуск [Выпуск 201] (2010) SATRip

0 | 2

499.05 МБ

В этой теме нет новых непрочитанных сообщений. Спокойной ночи, малыши! [Выпуски за 2013 год: 01-133 выпуск] (2013) SATRip

0 | 1

16.35 ГБ




Вы не можете начинать темы
Вы не можете отвечать на сообщения
Вы не можете редактировать свои сообщения
Вы не можете удалять свои сообщения
Вы не можете добавлять вложения

Перейти:  
Для Мосгорсуда, Роскомнадзора и рекламодателей: mosgorsud-torrent[собачка]yandex.ru
 Вход
ppkBB3cker v.2 © 2008-2014 @ PPK
[ Time : 0.021s | 14 Queries | GZIP : Off ]

Торрент трекер RUTOR.IN, Не можете зайти на rutor.org? Какой новый адрес рутор? Какое зеркало рутор? Не работает rutor.org и зеркала? Тогда наш торрент специально для вас. Rutor.in неофициальное зеркало rutor. В случае если у Вас заблокирован rutor или вдруг Вы не можете на него зайти, то Вы без труда сможете скачать бесплатно и без рекламы последние новинки кино, игр, сериалов и прочего у нас, на Rutor.in. Не нужно использовать прокси, чтобы зайти на рутор, достаточно воспользоваться нашим ресурсом. Все новые фильмы, игры, сериалы, книги и музыка за 2013 и 2014 годы через торрент бесплатно. Скачивайте фильмы в хорошем качестве, игры для пк, xbox, playstation без регистрации. У нас вы найдете новые Зарубежные сериалы и Русские сериалы 2013, 2014, 2015 годов. Оставайтесь с нами, качайте любимые фильмы, игры, сериалы, книги и музыку.