img image001 image001 image001 image001 image001 image001 image001 image001 image001 image001 image001 image001 image001 image001 image001

Planets Sun Sun Sun
Статистика раздачи
Автор: PriZraK | Размер: 33.6 ГБ | Добавлен: 15 фев 2014
Раздают: 0    Качают: 1
Скачать торрент
Скачать торрент
Описание торрента

СообщениеДобавлено: 15 фев 2014 

Вечерний Ургант. Четвертый сезон. Выпуск 021-033

Год выпуска: 2013
Страна: Россия
Жанр: Вечернее ток-шоу / Late Night Show
Продолжительность: ~ 00:32:00 / выпуск
Перевод: Не требуется
Русские субтитры: нет

Описание: «Вечерний Ургант» – медиаспектакль, в котором участвуют главные действующие лица событий, произошедших в стране за последние 24 часа. Премьера передачи «Вечерний Ургант» – 16 апреля 2012 года на Первом канале. Иван Ургант и продюсерская команда шоу «Вечерний Ургант» попытаются адаптировать к российской действительности американский формат вечернего ток-шоу. Шоу «Вечерний Ургант» расскажет зрителям обо всем, что происходило в стране и в мире за последние сутки, и познакомит страну с актуальными героями, которые смогут выразить свое мнение о событиях дня.

Доп. информация: Релиз -


Рип чистый. Без посторонних надписей. Выкладывается как есть.
21. (211)(30.09.2013) Марина Александрова и Эдуард Радзюкевич, Дмитрий Хрусталев и Виктор Васильев.
22. (212)(01.10.2013) Максим Суханов, группа "А-Студио".
23. (213)(02.10.2013) Владимир Пресняков, Алла Михеева.
24. (214) (04.10.2013) Антонио Бандерас, Федор Бондарчук. Музыкальный гость - "Alphaville".
25. (215) (07.10.2013) Владислав Третьяк. Музыкальный гость - Ёлка и Змей "Каста".
26. (216) (08.10.2013) Кристина Орбакайте, Антон Долин.
27. (217) (09.10.2013) Вячеслав Бутусов, Антон Комолов. Музыкальный гость - "Ю-питер".
28. (218) (10.10.2013) Элис Купер, Алла Михеева.

29. (219) (11.10.2013) Харрисон Форд, Элис Купер.
30. (220) (14.10.2013) ...




Качество: HDTV 1080i
Контейнер: TS
Видео кодек: AVC
Аудио кодек: MP2
Видео: 1920x1080 (16:9) 25.000 fps 9 643 Kbps, 0.186 bit/pixel
Аудио: MPEG Audio 48000Hz stereo 192 Кбит/сек

GeneralID : 1 (0x1)Complete name : D:ВыкладкаВечерний Ургант. Четвертый сезон. Выпуски 001-020 (2013, ТВ-Шоу, HDTV) (MYDIMKA)Выпуск 001 (191) (Эфир от 02.09.2013) (MYDIMKA).ts .tsFormat : MPEG-TSFile size : 2.23 GiBDuration : 30mn 54sOverall bit rate mode : VariableOverall bit rate : 10.3 Mbps

VideoID : 69 (0x45)Menu ID : 1 (0x1)Format : AVCFormat/Info : Advanced Video CodecFormat profile : High@L4.0Format settings, CABAC : YesFormat settings, ReFrames : 3 framesCodec ID : 27Duration : 30mn 54sBit rate : 9 643 KbpsWidth : 1 920 pixelsHeight : 1 080 pixelsDisplay aspect ratio : 16:9Frame rate : 25.000 fpsStandard : ComponentColor space : YUVChroma subsampling : 4:2:0Bit depth : 8 bitsScan type : InterlacedScan order : Top Field FirstBits/(Pixel*Frame) : 0.186Stream size : 2.08 GiB (93%)Color primaries : BT.709Transfer characteristics : BT.709Matrix coefficients : BT.709

AudioID : 68 (0x44)Menu ID : 1 (0x1)Format : MPEG AudioFormat version : Version 1Format profile : Layer 2Codec ID : 3Duration : 30mn 54sBit rate mode : ConstantBit rate : 192 KbpsChannel(s) : 2 channelsSampling rate : 48.0 KHzCompression mode : LossyStream size : 42.4 MiB (2%)Language : English

Внимание! Раздача ведётся путём добавления новых выпусков; при каждом добавлении создётся новый торрент. Чтобы начать докачку нового выпуска, пользователям необходимо сделать следующее:
(1) остановить скачивание,
(2) удалить старый торрент у себя из клиента (старые выпуски удалять не надо),
(3) скачать новый торрент и запустить его у себя в клиенте вместо старого, при этом указать клиенту путь в старую папку куда и должно происходить скачивание новых выпусков.
Ваш клиент при этом должен произвести хеширование (проверку) старой папки (если не производит сам - помогите ему сделать это), и будет докачивать только те выпуски которых у вас ещё нет. Старые выпуски при этом не удаляются, а продолжают раздаваться!
Eсли вы уже удалили старые выпуски, то предотвратить повторную закачку старых выпусков можно, отжав галочку в соответсвующих местах при запуске нового торрента. По возможности, желательно не удалять старые выпуски как можно дольше чтобы релизёр не столько продолжал раздавать старые выпуски, а смог сконцентрироваться на новых.



   Похожие торренты   Торрент   Размер 
В этой теме нет новых непрочитанных сообщений. Вечерний Ургант [03х67] (2013) HDTV 1080i

3 | 1

2.47 ГБ

В этой теме нет новых непрочитанных сообщений. Вечерний Ургант [03х45] (2013) HDTV 1080i

0 | 1

2.1 ГБ

В этой теме нет новых непрочитанных сообщений. Вечерний Ургант [03х58] (2013) HDTV 1080i

0 | 2

2.27 ГБ

В этой теме нет новых непрочитанных сообщений. Вечерний Ургант [03х41] (2013) HDTV 1080i

0 | 1

3.7 ГБ

В этой теме нет новых непрочитанных сообщений. Вечерний Ургант [03х38] (2013) HDTV 1080i

0 | 1

1.93 ГБ

В этой теме нет новых непрочитанных сообщений. Вечерний Ургант [03х35] (2013) HDTV 1080i

0 | 1

2.36 ГБ

В этой теме нет новых непрочитанных сообщений. Вечерний Ургант [03х37] (2013) HDTV 1080i

0 | 1

2.13 ГБ




Вы не можете начинать темы
Вы не можете отвечать на сообщения
Вы не можете редактировать свои сообщения
Вы не можете удалять свои сообщения
Вы не можете добавлять вложения

Перейти:  
Для Мосгорсуда, Роскомнадзора и рекламодателей: mosgorsud-torrent[собачка]yandex.ru
 Вход
ppkBB3cker v.2 © 2008-2014 @ PPK
[ Time : 0.038s | 16 Queries | GZIP : Off ]

Торрент трекер RUTOR.IN, Не можете зайти на rutor.org? Какой новый адрес рутор? Какое зеркало рутор? Не работает rutor.org и зеркала? Тогда наш торрент специально для вас. Rutor.in неофициальное зеркало rutor. В случае если у Вас заблокирован rutor или вдруг Вы не можете на него зайти, то Вы без труда сможете скачать бесплатно и без рекламы последние новинки кино, игр, сериалов и прочего у нас, на Rutor.in. Не нужно использовать прокси, чтобы зайти на рутор, достаточно воспользоваться нашим ресурсом. Все новые фильмы, игры, сериалы, книги и музыка за 2013 и 2014 годы через торрент бесплатно. Скачивайте фильмы в хорошем качестве, игры для пк, xbox, playstation без регистрации. У нас вы найдете новые Зарубежные сериалы и Русские сериалы 2013, 2014, 2015 годов. Оставайтесь с нами, качайте любимые фильмы, игры, сериалы, книги и музыку.