img image001 image001 image001 image001 image001 image001 image001 image001 image001 image001 image001 image001 image001 image001 image001

Planets Sun Sun Sun
Статистика раздачи
Автор: PriZraK | Размер: 12.36 ГБ | Добавлен: 15 фев 2014
Раздают: 68    Качают: 36
Скачать торрент
Скачать торрент
Описание торрента

СообщениеДобавлено: 15 фев 2014 

Хочу V ВИА Гру! Выпуск № 01-08

Страна: Россия
Жанр: Pop, Show
Продолжительность: ~01:59:21
Год выпуска: 2013 г.

Описание: Не так давно миллионы поклонников «ВИА Гры» узнали, что коллектив прекратил существование. Однако, как выяснилось, лишь для того, чтобы открыть новую страницу своей истории. На НТВ стартует новое масштабное талант-шоу «Хочу V ВИА Гру!», где на глазах у миллионов телезрителей на всем постсоветском пространстве будет формироваться новый состав легендарной группы. Авторы идеи – композитор и продюсер Константин Меладзе и украинский клипмейкер Алан Бадоев, который также выступает в роли режиссера проекта. Впервые шанс побороться за участие в суперуспешном коллективе получат самые обыкновенные девушки, а окончательное решение, кому достанется место в группе, примут зрители. Несколько тысяч претенденток из четырех стран – России, Украины, Белоруссии и Казахстана – уже прошли ряд испытаний, но впереди их ждет финальный кастинг. Главным судьей выступит лично Константин Меладзе. В команде его помощников-экспертов — актер Игорь Верник и экс-участницы «ВИА Гры» Альбина Джанабаева, Алена Винницкая, Анна Седокова, Надежда Мейхер, Меседа Багаудинова и Санта Димопулос. После всех кастингов шесть бывших участниц группы станут наставницами для претенденток в «ВИА Гру». У каждой из экс-солисток будет свое трио, с которым нужно будет постичь искусство выступления на сцене, подобрать репертуар и поработать над сценическим образом. Ведущие шоу – актер и продюсер Владимир Зеленский и бывшая участница коллектива Вера Брежнева — познакомят зрителей с участницами проекта и будут поддерживать каждую из них на пути к победе. Ведь «Хочу V ВИА Гру!» – не просто развлекательное шоу, это проект, который приоткроет закулисье шоу-бизнеса, откровенно рассказывая о том, как из простых девушек создают мегазвезд!

Треклист: Требуется помощь

Источник: собственный рип

Доп. информация: Релиз -


Рип чистый. Без посторонних надписей. Выкладывается как есть.

Качество: SATRIp
Формат: AVI
Видео кодек: XVID
Аудио кодек: MP3
Видео: 720x400 (16:9) 25.000 fps 2 100 Kbps, 0.291 bit/pixel
Аудио: MPEG Audio, 48000Hz, 2 channels, 192 Кбит/сек





GeneralComplete name : D:ВыкладкаХочу V ВИА Гру (2013, Pop, Show, SATRip) (MYDIMKA)1 выпуск (Эфир 06.09.2013) (MYDIMKA).aviFormat : AVIFormat/Info : Audio Video InterleaveFile size : 1.79 GiBDuration : 1h 51mnOverall bit rate : 2 299 KbpsWriting application : VirtualDubMod 1.5.10.3 | www.virtualdub-fr.org || (build 2550/release)Writing library : VirtualDubMod build 2550/release

VideoID : 0Format : MPEG-4 VisualFormat profile : Advanced Simple@L5Format settings, BVOP : 2Format settings, QPel : NoFormat settings, GMC : No warppointsFormat settings, Matrix : Default (H.263)Muxing mode : Packed bitstreamCodec ID : XVIDCodec ID/Hint : XviDDuration : 1h 51mnBit rate : 2 097 KbpsWidth : 720 pixelsHeight : 400 pixelsDisplay aspect ratio : 16:9Frame rate : 25.000 fpsColor space : YUVChroma subsampling : 4:2:0Bit depth : 8 bitsScan type : ProgressiveCompression mode : LossyBits/(Pixel*Frame) : 0.291Stream size : 1.63 GiB (91%)Writing library : XviD 1.2.1 (UTC 2008-12-04)

AudioID : 1Format : MPEG AudioFormat version : Version 1Format profile : Layer 3Codec ID : 55Codec ID/Hint : MP3Duration : 1h 51mnBit rate mode : ConstantBit rate : 192 KbpsChannel(s) : 2 channelsSampling rate : 48.0 KHzCompression mode : LossyStream size : 153 MiB (8%)Alignment : Aligned on interleavesInterleave, duration : 40 ms (1.00 video frame)Interleave, preload duration : 504 msWriting library : LAME3.99rEncoding settings : -m s -V 4 -q 2 -lowpass 18.6 -b 192



   Похожие торренты   Торрент   Размер 
В этой теме нет новых непрочитанных сообщений. Большая разница. Выпуск 21. Новогодний выпуск (2009) SATRip by KVNforAll

3 | 2

1.37 ГБ

В этой теме нет новых непрочитанных сообщений. Comedy Club (Выпуск 161) Новогодний выпуск (2009) SATRip by BigFAN

126 | 18

700.5 МБ

В этой теме нет новых непрочитанных сообщений. Comedy Club (Выпуск 160) Новогодний выпуск (2008) SATRip by BigFAN

2 | 9

520.06 МБ

В этой теме нет новых непрочитанных сообщений. Хит [Выпуск 01-06] (2013) SATRip

1 | 1

5.35 ГБ

В этой теме нет новых непрочитанных сообщений. Comedy Club: Новогодний выпуск (Выпуск 199) (2009) SATRip

10 | 5

501.07 МБ

В этой теме нет новых непрочитанных сообщений. Comedy Club Рожденственский выпуск [Выпуск 201] (2010) SATRip

0 | 2

499.05 МБ

В этой теме нет новых непрочитанных сообщений. Большая разница - Новогодний выпуск [Выпуск №21] (2009) SATRip

1 | 4

1.05 ГБ




Вы не можете начинать темы
Вы не можете отвечать на сообщения
Вы не можете редактировать свои сообщения
Вы не можете удалять свои сообщения
Вы не можете добавлять вложения

Перейти:  
Для Мосгорсуда, Роскомнадзора и рекламодателей: mosgorsud-torrent[собачка]yandex.ru
 Вход
ppkBB3cker v.2 © 2008-2014 @ PPK
[ Time : 0.034s | 14 Queries | GZIP : Off ]

Торрент трекер RUTOR.IN, Не можете зайти на rutor.org? Какой новый адрес рутор? Какое зеркало рутор? Не работает rutor.org и зеркала? Тогда наш торрент специально для вас. Rutor.in неофициальное зеркало rutor. В случае если у Вас заблокирован rutor или вдруг Вы не можете на него зайти, то Вы без труда сможете скачать бесплатно и без рекламы последние новинки кино, игр, сериалов и прочего у нас, на Rutor.in. Не нужно использовать прокси, чтобы зайти на рутор, достаточно воспользоваться нашим ресурсом. Все новые фильмы, игры, сериалы, книги и музыка за 2013 и 2014 годы через торрент бесплатно. Скачивайте фильмы в хорошем качестве, игры для пк, xbox, playstation без регистрации. У нас вы найдете новые Зарубежные сериалы и Русские сериалы 2013, 2014, 2015 годов. Оставайтесь с нами, качайте любимые фильмы, игры, сериалы, книги и музыку.