img image001 image001 image001 image001 image001 image001 image001 image001 image001 image001 image001 image001 image001 image001 image001

Planets Sun Sun Sun
Статистика раздачи
Автор: PriZraK | Размер: 32.5 ГБ | Добавлен: 15 фев 2014
Раздают: 0    Качают: 3
Скачать торрент
Скачать торрент
Описание торрента

СообщениеДобавлено: 15 фев 2014 

Хочу V ВИА Гру!

Страна: Россия
Жанр: Pop, Show
Продолжительность: 01:50:00 / выпуск
Год выпуска: 2013 г.

Описание: Не так давно миллионы поклонников «ВИА Гры» узнали, что коллектив прекратил существование. Однако, как выяснилось, лишь для того, чтобы открыть новую страницу своей истории. На НТВ стартует новое масштабное талант-шоу «Хочу V ВИА Гру!», где на глазах у миллионов телезрителей на всем постсоветском пространстве будет формироваться новый состав легендарной группы. Авторы идеи – композитор и продюсер Константин Меладзе и украинский клипмейкер Алан Бадоев, который также выступает в роли режиссера проекта. Впервые шанс побороться за участие в суперуспешном коллективе получат самые обыкновенные девушки, а окончательное решение, кому достанется место в группе, примут зрители. Несколько тысяч претенденток из четырех стран – России, Украины, Белоруссии и Казахстана – уже прошли ряд испытаний, но впереди их ждет финальный кастинг. Главным судьей выступит лично Константин Меладзе. В команде его помощников-экспертов — актер Игорь Верник и экс-участницы «ВИА Гры» Альбина Джанабаева, Алена Винницкая, Анна Седокова, Надежда Мейхер, Меседа Багаудинова и Санта Димопулос. После всех кастингов шесть бывших участниц группы станут наставницами для претенденток в «ВИА Гру». У каждой из экс-солисток будет свое трио, с которым нужно будет постичь искусство выступления на сцене, подобрать репертуар и поработать над сценическим образом. Ведущие шоу – актер и продюсер Владимир Зеленский и бывшая участница коллектива Вера Брежнева — познакомят зрителей с участницами проекта и будут поддерживать каждую из них на пути к победе. Ведь «Хочу V ВИА Гру!» – не просто развлекательное шоу, это проект, который приоткроет закулисье шоу-бизнеса, откровенно рассказывая о том, как из простых девушек создают мегазвезд!

Треклист: Требуется помощь

Источник: собственный рип

Доп. информация: Релиз -


Рип чистый. Без посторонних надписей. Выкладывается как есть.

Качество: DVB
Формат: MPG
Видео кодек: MPG2
Аудио кодек: MP2
Видео: 720x576 @ 1024x576 (16:9) 25.00fps 5 804 Kbps, 0.560 bit/pixel
Аудио: MPEG Audio 48000Hz 2 channels 192 Кбит/сек





GeneralComplete name : D:ВыкладкаХочу V ВИА Гру (2013, Pop, Show, DVB) (MYDIMKA)1 выпуск (Эфир 06.09.2013) (MYDIMKA).mpgFormat : MPEG-PSFile size : 4.77 GiBDuration : 1h 51mnOverall bit rate mode : VariableOverall bit rate : 6 120 Kbps

VideoID : 224 (0xE0)Format : MPEG VideoFormat version : Version 2Format profile : Main@MainFormat settings, BVOP : YesFormat settings, Matrix : CustomFormat settings, GOP : M=3, N=24Duration : 1h 51mnBit rate mode : VariableBit rate : 5 806 KbpsMaximum bit rate : 15.0 MbpsWidth : 720 pixelsHeight : 576 pixelsDisplay aspect ratio : 16:9Frame rate : 25.000 fpsStandard : PALColor space : YUVChroma subsampling : 4:2:0Bit depth : 8 bitsScan type : InterlacedScan order : Top Field FirstCompression mode : LossyBits/(Pixel*Frame) : 0.560Time code of first frame : 00:00:00:00Time code source : Group of pictures headerStream size : 4.52 GiB (95%)

AudioID : 192 (0xC0)Format : MPEG AudioFormat version : Version 1Format profile : Layer 2Duration : 1h 51mnBit rate mode : ConstantBit rate : 192 KbpsChannel(s) : 2 channelsSampling rate : 48.0 KHzCompression mode : LossyDelay relative to video : 8msStream size : 153 MiB (3%)



   Похожие торренты   Торрент   Размер 
В этой теме нет новых непрочитанных сообщений. Comedy Club (Выпуск 160) Новогодний выпуск (2008) SATRip by BigFAN

2 | 9

520.06 МБ

В этой теме нет новых непрочитанных сообщений. Comedy Club (Выпуск 161) Новогодний выпуск (2009) SATRip by BigFAN

126 | 18

700.5 МБ

В этой теме нет новых непрочитанных сообщений. Большая разница. Выпуск 21. Новогодний выпуск (2009) SATRip by KVNforAll

3 | 2

1.37 ГБ

В этой теме нет новых непрочитанных сообщений. КВН-2013. Высшая лига. [01-07 выпуски + Специальный выпуск] (2013) HDTV 1080i

0 | 9

54.37 ГБ

В этой теме нет новых непрочитанных сообщений. Танцы со звездами. Сезон 2013. [Выпуск 02] (2013) HDTV 1080i от MediaClub

2 | 4

11.67 ГБ

В этой теме нет новых непрочитанных сообщений. КВН-2013. Высшая лига. [01-07 выпуски + Специальный выпуск] (2013) HDTVRip 720p

0 | 2

26.26 ГБ

В этой теме нет новых непрочитанных сообщений. Танцы со звездами. Сезон 2013. [Выпуск 01] (2013) HDTV 1080i от MediaClub

0 | 5

13.11 ГБ




Вы не можете начинать темы
Вы не можете отвечать на сообщения
Вы не можете редактировать свои сообщения
Вы не можете удалять свои сообщения
Вы не можете добавлять вложения

Перейти:  
Для Мосгорсуда, Роскомнадзора и рекламодателей: mosgorsud-torrent[собачка]yandex.ru
 Вход
ppkBB3cker v.2 © 2008-2014 @ PPK
[ Time : 0.042s | 15 Queries | GZIP : Off ]

Торрент трекер RUTOR.IN, Не можете зайти на rutor.org? Какой новый адрес рутор? Какое зеркало рутор? Не работает rutor.org и зеркала? Тогда наш торрент специально для вас. Rutor.in неофициальное зеркало rutor. В случае если у Вас заблокирован rutor или вдруг Вы не можете на него зайти, то Вы без труда сможете скачать бесплатно и без рекламы последние новинки кино, игр, сериалов и прочего у нас, на Rutor.in. Не нужно использовать прокси, чтобы зайти на рутор, достаточно воспользоваться нашим ресурсом. Все новые фильмы, игры, сериалы, книги и музыка за 2013 и 2014 годы через торрент бесплатно. Скачивайте фильмы в хорошем качестве, игры для пк, xbox, playstation без регистрации. У нас вы найдете новые Зарубежные сериалы и Русские сериалы 2013, 2014, 2015 годов. Оставайтесь с нами, качайте любимые фильмы, игры, сериалы, книги и музыку.
cron